• 0
  • 0
  • 446
Sponsored Downloadondemand_video
  • Green.Zone.2010 (MJY-Team) MOvieJockey.com
  • 1.6 GB
  • surfingalien
  • Green Zone 2010 Team MOvieJockey
  • English
  • Divx/Xvid
64%

Green Zone (2010)

  • War Action Adventure Drama Thriller
  • During the U.S.-led occupation of Baghdad in 2003, Chief Warrant Officer Roy Miller and his team of Army inspectors are dispatched to find weapons of mass destruction believed to be stockpiled in the Iraqi desert. Rocketing from one booby-trapped and treacherous site to the next, the men search for deadly chemical agents but stumble instead upon an elaborate cover-up that threatens to invert the purpose of their mission.

    expand_more
    English
  • $100,000,000
  • Description

    [SIZE="6"]

    Green.Zone.2010 (MJY-Team)

    [/SIZE]

    image

    image image image image

    Quote:

    __ [CENTER]Format : AVI

    Format/Info : Audio Video Interleave

    File size : 1.57 GiB

    Duration : 1h 45mn

    Overall bit rate : 2 126 Kbps

    Writing application : VirtualDubMod 1.5.10.2 (build 2540/release)

    Writing library : VirtualDubMod build 2540/release

    Video

    ID : 0

    Format : MPEG-4 Visual

    Format profile : Advanced [email protected]
    Format settings, BVOP : Yes

    Format settings, QPel : No

    Format settings, GMC : No warppoints

    Format settings, Matrix : Default (MPEG)

    Muxing mode : Packed bitstream

    Codec ID : XVID

    Codec ID/Hint : XviD

    Duration : 1h 45mn

    Bit rate : 1 924 Kbps

    Width : 496 pixels

    Height : 208 pixels

    Display aspect ratio : 2.35:1

    Frame rate : 23.976 fps

    Resolution : 8 bits

    Colorimetry : 4:2:0

    Scan type : Progressive

    Bits/(Pixel*Frame) : 0.778

    Stream size : 1.42 GiB (91%)

    Writing library : XviD 1.2.1 (UTC 2008-12-04)

    Audio

    ID : 1

    Format : MPEG Audio

    Format version : Version 1

    Format profile : Layer 3

    Mode : Joint stereo

    Codec ID : 55

    Codec ID/Hint : MP3

    Duration : 1h 45mn

    Bit rate mode : Constant

    Bit rate : 192 Kbps

    Channel(s) : 2 channels

    Sampling rate : 48.0 KHz

    Stream size : 145 MiB (9%)

    Alignment : Split accross interleaves

    Interleave, duration : 42 ms (1.00 video frame)

    Interleave, preload duration : 500 ms

    Writing library : LAME3.92 (alpha)

    __

    [/CENTER]


    More at ibit.to
    And ibit.uno
    And ibit.ws

    Reviews

    Comments

    8 years ago

    Green Zone 2010 REPACK TS XviD-Rx

    Files

    Green.Zone.2010 (MJY-Team) MOvieJockey.com.avi 1.6 GB

    Stream

    Downloading Seeding Green.Zone.2010 (MJY-Team) MOvieJockey.com from to 0 peers.
    of
    0 b/s / ↗0 b/s