• 0
  • 1
  • 32
Anonymous Downloadondemand_video
Warning! Use a VPN When Downloading Torrents!
Your IP Address is ,
Your Internet Provider can see when you download torrents! Hide your IP ADDRESS with a VPN
We strongly recommend Trust.Zone VPN to hide your torrenting. It's FREE!
DOWNLOAD VPN
90%

Great Continental Railway Journeys: Tangier to Marrakech(2016)

  • 5 3
  • Documentary
  • Michael Portillo travels on the great train routes of Europe, as he retraces the journeys featured in George Bradshaw's 1913 Continental Railway Guide.

    English
    • 1
    • 2
    • 3
    • 4
    • 5
    • 6

    Description

    Great Continental Railway Journeys -S05E03 Tangier to Marrakech

    Michael Portillo leaves Europe behind to take in the sights, smells and tastes of north Africa as he travels from the Mediterranean port of Tangier to the Berber city of Marrakech.

    Morocco-bound with his 1913 guidebook in hand, he discovers in Tangier how, in the year before his Bradshaw was published, this once proudly independent nation fell under the control of the French as rival European powers scrambled to extend their empires in Africa. At Asilah, Michael lends a hand with the construction of Morocco's new £3 billion high-speed railway line to Casablanca. In Fez, he dodges the donkeys and learns how to make lamb tagine before being scrubbed down in a traditional hammam.

    Arriving in Casablanca, Michael makes straight for the most famous gin joint in the world. He visits the vast and beautifully decorated Hassan II mosque, which boasts the world's tallest minaret before boarding his Marrakech Express. In the desert city of the Berbers, Michael explores the thousand year old tanneries and shops in the souk. In the foothills of the Atlas mountains, Michael is invited to share breakfast with a Berber family.

    First shown: 4 October 2016

    Duration: 60 minutes

    image

    Media info:-

    General

    Format : MPEG-4

    Format profile : Base Media

    Codec ID : isom (isom/iso2/avc1/mp41)

    File size : 1 011 MiB

    Duration : 59mn 8s

    Overall bit rate mode : Variable

    Overall bit rate : 2 390 Kbps

    Writing application : Lavf57.25.100

    Video

    ID : 1

    Format : AVC

    Format/Info : Advanced Video Codec

    Format profile : [email protected]
    Format settings, CABAC : Yes

    Format settings, ReFrames : 2 frames

    Codec ID : avc1

    Codec ID/Info : Advanced Video Coding

    Duration : 59mn 8s

    Bit rate mode : Variable

    Bit rate : 2 291 Kbps

    Maximum bit rate : 3 500 Kbps

    Width : 1 280 pixels

    Height : 720 pixels

    Display aspect ratio : 16:9

    Frame rate mode : Constant

    Frame rate : 25.000 fps

    Color space : YUV

    Chroma subsampling : 4:2:0

    Bit depth : 8 bits

    Scan type : Progressive

    Bits/(Pixel*Frame) : 0.099

    Stream size : 969 MiB (96%)

    Audio

    ID : 2

    Format : AAC

    Format/Info : Advanced Audio Codec

    Format profile : LC

    Codec ID : 40

    Duration : 59mn 8s

    Bit rate mode : Constant

    Bit rate : 93.5 Kbps

    Channel(s) : 2 channels

    Channel positions : Front: L R

    Sampling rate : 48.0 KHz

    Frame rate : 46.875 fps (1024 spf)

    Compression mode : Lossy

    Stream size : 39.5 MiB (4%)


    More at ibit.to
    And ibit.uno
    And ibit.ws

    Reviews

    Comments

    Files

    Great Continental Railway Journeys S05E03 - Tangier to Marrakech.mp4 1.0 GB
    Great Continental Railway Journeys S05E03 - Tangier to Marrakech.jpg 1.1 MB
    About this torrent.txt -
    Torrent Downloaded From ExtraTorrent.cc.txt -

    Stream

    Downloading Seeding Great Continental Railway Journeys -S05E03 Tangier to Marrakech from to 0 peers.
    of
    0 b/s / ↗0 b/s