• 3
  • 0
  • 3,889
  • done
Anonymous Downloadondemand_video
Warning! Use a VPN When Downloading Torrents!
Your IP Address is ,
Your Internet Provider can see when you download torrents! Hide your IP ADDRESS with a VPN
We strongly recommend hide.me VPN to hide your torrenting. It's FREE!
DOWNLOAD VPN
79%

Gone Girl (2014)

  • Mystery Thriller Drama
  • With his wife's disappearance having become the focus of an intense media circus, a man sees the spotlight turned on him when it's suspected that he may not be innocent.

    expand_more
    English
  • $61,000,000
  • Description

    Gone Girl - L'amore bugiardo (2014).BRrip.XviD - Italian English.Ac3 - 5.1 - Sub Ita Eng.MIRCrew

    **image

    **

    ** NO FOUND ONLY ORIGINAL RELEASE **

    **

    L'amore bugiardo - Gone Girl (2014)

    image

    image

    image

    Titolo originale Gone Girl

    Lingua originale inglese

    Paese di produzione Stati Uniti d'America

    Anno 2014

    Durata 149 min

    Rapporto 2,35 : 1

    Genere drammatico, thriller, mistero

    Regia David Fincher

    Soggetto Gillian Flynn (romanzo)

    Sceneggiatura Gillian Flynn

    Produttore Reese Witherspoon, Arnon Milchan, Joshua Donen, Ceán Chaffin

    Produttore esecutivo Leslie Dixon, Bruna Papandrea

    Casa di produzione New Regency Pictures, Pacific Standard

    Distribuzione (Italia) 20th Century Fox

    Fotografia Jeff Cronenweth

    Montaggio Kirk Baxter, Angus Wall

    Musiche Trent Reznor, Atticus Ross

    Scenografia Donald Graham Burt

    Costumi Trish Summerville

    image

    Ben Affleck: Nick Dunne

    Rosamund Pike: Amy Elliott-Dunn

    Neil Patrick Harris: Desi Collings

    Tyler Perry: Tanner Bolt

    Carrie Coon: Margo Dunne

    Kim Dickens: Detective Rhonda Boney

    Patrick Fugit: Detective Jim Gilpin

    Emily Ratajkowski: Andie Fitzgerald

    Missi Pyle: Ellen Abbott

    Lisa Banes: Marybeth Elliott

    David Clennon: Rand Elliott

    Casey Wilson: Noelle Hawthorne

    Sela Ward: Sharon Scheiber

    Boyd Holbrook: Jeff

    Lola Kirke: Greta

    Scoot McNairy: Tommy O'Hara

    Lee Norris: Agente di polizia

    image.

    Nick, sposato da cinque anni con Amy, perde il suo lavoro come giornalista a causa di un ridimensionamento e decide di trasferirsi con sua moglie da New York City alla sua piccola città natale nel Nord Carthage, in Missouri, anche per stare vicini alla madre, affetta da un tumore e che morirà nel giro di qualche mese. Lì apre un bar, utilizzando l'ultimo fondo fiduciario di sua moglie, e lo gestisce insieme a sua sorella gemella Margot. Il bar offre una vita decente ai tre Dunnes, ma il matrimonio diventa sempre più problematico......................

    image

    On the occasion of his fifth wedding anniversary, Nick Dunne reports that his wife, Amy, has gone missing. Under pressure from the police and a growing media frenzy, Nick's portrait of a blissful union begins to crumble. Soon his lies, deceits and strange behavior have everyone asking the same dark question: .......

    image

    image

    image

    image

    image

    image

    [spoiler]

    General

    Complete name : L'amore bugiardo - Gone Girl (2014).ita.eng.sub.ita.eng.MIRCrewL'amore bugiardo - Gone Girl (2014).ita.eng.sub.ita.eng.MIRCrew.avi

    Format : AVI

    Format/Info : Audio Video Interleave

    Format profile : OpenDML

    File size : 2.01 GiB

    Duration : 2h 29mn

    Overall bit rate : 1 935 Kbps

    Movie name : MIRCRew by robbyrs

    Writing application : VirtualDubMod 1.5.10.2 (build 2540/release)

    Writing library : VirtualDubMod build 2540/release

    Video

    ID : 0

    Format : MPEG-4 Visual

    Format profile : [email protected]
    Format settings, BVOP : No

    Format settings, QPel : No

    Format settings, GMC : No warppoints

    Format settings, Matrix : Default (H.263)

    Codec ID : XVID

    Codec ID/Hint : XviD

    Duration : 2h 29mn

    Bit rate : 1 020 Kbps

    Width : 720 pixels

    Height : 300 pixels

    Display aspect ratio : 2.40:1

    Frame rate : 23.976 fps

    Color space : YUV

    Chroma subsampling : 4:2:0

    Bit depth : 8 bits

    Scan type : Progressive

    Compression mode : Lossy

    Bits/(Pixel*Frame) : 0.197

    Stream size : 1.06 GiB (53%)

    Writing library : XviD 64

    Audio #1

    ID : 1

    Format : AC-3

    Format/Info : Audio Coding 3

    Mode extension : CM (complete main)

    Codec ID : 2000

    Duration : 2h 29mn

    Bit rate mode : Constant

    Bit rate : 448 Kbps

    Channel(s) : 6 channels

    Channel positions : Front: L C R, Side: L R, LFE

    Sampling rate : 48.0 KHz

    Bit depth : 16 bits

    Compression mode : Lossy

    Stream size : 478 MiB (23%)

    Alignment : Split accross interleaves

    Interleave, duration : 42 ms (1.00 video frame)

    Interleave, preload duration : 500 ms

    Audio #2

    ID : 2

    Format : AC-3

    Format/Info : Audio Coding 3

    Mode extension : CM (complete main)

    Codec ID : 2000

    Duration : 2h 29mn

    Bit rate mode : Constant

    Bit rate : 448 Kbps

    Channel(s) : 6 channels

    Channel positions : Front: L C R, Side: L R, LFE

    Sampling rate : 48.0 KHz

    Bit depth : 16 bits

    Compression mode : Lossy

    Stream size : 478 MiB (23%)

    Alignment : Split accross interleaves

    Interleave, duration : 42 ms (1.00 video frame)

    Interleave, preload duration : 500 ms

    [/spoiler]

    **

    &&e4t67uk


    More at ibit.to
    And ibit.uno
    And ibit.am
    And ibit.ws

    Reviews

    Good cast and decent story, although the end is not very convincing. The cut of the movie is really good and Rosamund Pike is genuinely scary. Not a master piece but quite good given the lack of passable movies lately.

    Rosamund Pike is outstanding as the wronged wife and Ben Affleck is very good as the husband. It is convoluted, and you do start to think is this just going over the top, but the end just shows Pike's character to be a damaged high-functioning psychopath. So at the final sequence, even if it's a tad far fetched even if you feel that Affleck deserves everything coming to him, the look she gives to the camera is that of an pure evil. As my youngest daughter used to say when she was a kid, she's got scary eyes.

    Comments

    Files

    L'amore bugiardo - Gone Girl (2014).ita.eng.sub.ita.eng.MIRCrew.avi 2.0 GB
    L'amore bugiardo - Gone Girl (2014).ita.eng.sub.ita.eng.MIRCrew.eng.idx 121 kB
    L'amore bugiardo - Gone Girl (2014).ita.eng.sub.ita.eng.MIRCrew.eng.sub 17 MB
    L'amore bugiardo - Gone Girl (2014).ita.eng.sub.ita.eng.MIRCrew.idx 1.6 kB
    L'amore bugiardo - Gone Girl (2014).ita.eng.sub.ita.eng.MIRCrew.ita.idx 110 kB
    L'amore bugiardo - Gone Girl (2014).ita.eng.sub.ita.eng.MIRCrew.ita.sub 14 MB
    L'amore bugiardo - Gone Girl (2014).ita.eng.sub.ita.eng.MIRCrew.sub 154 kB
    L'amore bugiardo - Gone Girl (2014).ita.eng.sub.ita.eng.MIRCrew/L'amore bugiardo Gone Girl (2014).ita.eng.sub.ita.eng.MIRCrew -
    L'amore bugiardo - Gone Girl (2014).ita.eng.sub.ita.eng.MIRCrew/L'amore bugiardo Gone Girl (2014).ita.eng.sub.ita.eng.MIRCrew.avi 2.0 GB
    L'amore bugiardo - Gone Girl (2014).ita.eng.sub.ita.eng.MIRCrew/L'amore bugiardo Gone Girl (2014).ita.eng.sub.ita.eng.MIRCrew.eng.idx 121 kB
    L'amore bugiardo - Gone Girl (2014).ita.eng.sub.ita.eng.MIRCrew/L'amore bugiardo Gone Girl (2014).ita.eng.sub.ita.eng.MIRCrew.eng.sub 17 MB
    L'amore bugiardo - Gone Girl (2014).ita.eng.sub.ita.eng.MIRCrew/L'amore bugiardo Gone Girl (2014).ita.eng.sub.ita.eng.MIRCrew.idx 1.6 kB
    L'amore bugiardo - Gone Girl (2014).ita.eng.sub.ita.eng.MIRCrew/L'amore bugiardo Gone Girl (2014).ita.eng.sub.ita.eng.MIRCrew.ita.idx 110 kB
    L'amore bugiardo - Gone Girl (2014).ita.eng.sub.ita.eng.MIRCrew/L'amore bugiardo Gone Girl (2014).ita.eng.sub.ita.eng.MIRCrew.ita.sub 14 MB
    L'amore bugiardo - Gone Girl (2014).ita.eng.sub.ita.eng.MIRCrew/L'amore bugiardo Gone Girl (2014).ita.eng.sub.ita.eng.MIRCrew.sub 154 kB

    Stream

    Downloading Seeding Gone Girl - L'amore bugiardo (2014).BRrip.XviD - Italian English.Ac3 - 5.1 - Sub Ita Eng.MIRCrew from to 0 peers.
    of
    0 b/s / ↗0 b/s