• 0
  • 0
  • 220
  • done
Anonymous Downloadondemand_video
  • Godless 2017 Season 1 (2160p x265 10bit S92 Joy)
  • 13 GB
  • UTR
  • Godless 2017 Season 2160p x265 10bit
  • English
  • HEVC/x265
Warning! Use a VPN When Downloading Torrents!
Your IP Address is ,
Your Internet Provider can see when you download torrents! Hide your IP ADDRESS with a VPN
We strongly recommend Trust.Zone VPN to hide your torrenting. It's FREE!
DOWNLOAD VPN

Description

image
image
image
image
image
image

image

Media Information


** Media Information **


Code:

__ General
Format : Matroska

Format version : Version 4 / Version 2

File size : 2.07 GiB

Duration : 1 h 10 min

Overall bit rate : 4 187 kb/s

Encoded date : UTC 2018-09-07 07:59:59

Writing application : mkvmerge v24.0.0 ('Beyond The Pale') 64-bit

Writing library : libebml v1.3.6 + libmatroska v1.4.9

Writing frontend : StaxRip v1.8.2.0

Video
ID : 1

Format : HEVC

Format/Info : High Efficiency Video Coding

Format profile : Main [email protected]@Main

Codec ID : V_MPEGH/ISO/HEVC

Duration : 1 h 10 min

Bit rate : 4 000 kb/s

Width : 3 840 pixels

Height : 1 596 pixels

Display aspect ratio : 2.40:1

Frame rate mode : Constant

Frame rate : 23.976 (24000/1001) FPS

Color space : YUV

Chroma subsampling : 4:2:0

Bit depth : 10 bits

Bits/(Pixel*Frame) : 0.027

Stream size : 1.98 GiB (96%)

Writing library : x265 2.8+19-bcdc610cf5f0:[Windows][MSVC 1914][64 bit] 10bit

Encoding settings : cpuid=1111039 / frame-threads=4 / numa-pools=16 / wpp / no-pmode / no-pme / no-psnr / ssim / log-level=2 / input-csp=1 / input-res=3840x1596 / interlace=0 / total-frames=101817 / level-idc=0 / high-tier=1 / uhd-bd=0 / ref=3 / no-allow-non-conformance / no-repeat-headers / annexb / no-aud / no-hrd / info / hash=0 / no-temporal-layers / open-gop / min-keyint=23 / keyint=250 / gop-lookahead=0 / bframes=8 / b-adapt=2 / b-pyramid / bframe-bias=0 / rc-lookahead=20 / lookahead-slices=8 / scenecut=40 / radl=0 / no-intra-refresh / ctu=64 / min-cu-size=8 / no-rect / no-amp / max-tu-size=32 / tu-inter-depth=1 / tu-intra-depth=1 / limit-tu=0 / rdoq-level=1 / dynamic-rd=4.00 / ssim-rd / signhide / no-tskip / nr-intra=0 / nr-inter=0 / no-constrained-intra / strong-intra-smoothing / max-merge=2 / limit-refs=3 / no-limit-modes / me=1 / subme=2 / merange=57 / temporal-mvp / weightp / weightb / analyze-src-pics / deblock=0:0 / sao / sao-non-deblock / rd=3 / no-early-skip / rskip / no-fast-intra / no-tskip-fast / no-cu-lossless / b-intra / no-splitrd-skip / rdpenalty=0 / psy-rd=0.00 / psy-rdoq=0.00 / no-rd-refine / no-lossless / cbqpoffs=0 / crqpoffs=0 / rc=abr / bitrate=4000 / qcomp=0.60 / qpstep=4 / stats-write=0 / stats-read=2 / cplxblur=20.0 / qblur=0.5 / vbv-maxrate=12000 / vbv-bufsize=24000 / vbv-init=0.9 / ipratio=1.40 / pbratio=1.30 / aq-mode=3 / aq-strength=1.00 / cutree / zone-count=0 / no-strict-cbr / qg-size=32 / no-rc-grain / qpmax=69 / qpmin=0 / no-const-vbv / sar=0 / overscan=0 / videoformat=5 / range=0 / colorprim=2 / transfer=2 / colormatrix=2 / chromaloc=0 / display-window=0 / max-cll=0,0 / min-luma=0 / max-luma=1023 / log2-max-poc-lsb=8 / vui-timing-info / vui-hrd-info / slices=1 / no-opt-qp-pps / no-opt-ref-list-length-pps / multi-pass-opt-rps / scenecut-bias=0.05 / no-opt-cu-delta-qp / no-aq-motion / no-hdr / no-hdr-opt / no-dhdr10-opt / no-idr-recovery-sei / analysis-reuse-level=10 / scale-factor=0 / refine-intra=0 / refine-inter=0 / refine-mv=0 / limit-sao / ctu-info=0 / no-lowpass-dct / refine-mv-type=0 / copy-pic=1 / max-ausize-factor=1.0 / no-dynamic-refine / no-single-sei

Default : Yes

Forced : No

Audio
ID : 2

Format : AAC

Format/Info : Advanced Audio Codec

Format profile : HE-AAC / LC

Codec ID : A_AAC

Duration : 1 h 10 min

Bit rate : 185 kb/s

Channel(s) : 6 channels

Channel positions : Front: L C R, Side: L R, LFE

Sampling rate : 48.0 kHz / 24.0 kHz

Frame rate : 23.438 FPS (1024 spf)

Compression mode : Lossy

Delay relative to video : 31 ms

Stream size : 93.5 MiB (4%)

Language : English

Default : No

Forced : No

Subtitle #1
ID : 3

Format : UTF-8

Codec ID : S_TEXT/UTF8

Codec ID/Info : UTF-8 Plain Text

Duration : 1 h 7 min

Bit rate : 44 b/s

Count of elements : 781

Stream size : 22.1 KiB (0%)

Language : English

Default : No

Forced : No

Subtitle #2
ID : 4

Format : UTF-8

Codec ID : S_TEXT/UTF8

Codec ID/Info : UTF-8 Plain Text

Duration : 1 h 8 min

Bit rate : 63 b/s

Count of elements : 616

Stream size : 32.1 KiB (0%)

Language : Arabic

Default : No

Forced : No

Subtitle #3
ID : 5

Format : UTF-8

Codec ID : S_TEXT/UTF8

Codec ID/Info : UTF-8 Plain Text

Duration : 1 h 5 min

Bit rate : 39 b/s

Count of elements : 602

Stream size : 18.9 KiB (0%)

Language : German

Default : No

Forced : No

Subtitle #4
ID : 6

Format : UTF-8

Codec ID : S_TEXT/UTF8

Codec ID/Info : UTF-8 Plain Text

Duration : 1 h 5 min

Bit rate : 35 b/s

Count of elements : 605

Stream size : 17.2 KiB (0%)

Language : Spanish

Default : No

Forced : No

Subtitle #5
ID : 7

Format : UTF-8

Codec ID : S_TEXT/UTF8

Codec ID/Info : UTF-8 Plain Text

Duration : 1 h 5 min

Bit rate : 38 b/s

Count of elements : 603

Stream size : 18.6 KiB (0%)

Language : French

Default : No

Forced : No

__


** Source Information **


Code:

__ Release:
Godless.2017.S01.2160p.NF.WEBRip.DD5.1.x264-NTb (78.1 GB)

__

image

Note From UTR
We have no issue with individuals posting or re-uploading our torrents on a platform we aren't on. However, if this is something you'd like to do, please do so in a 'as-is' format. We ask that you do not create a new torrent, include all descriptions you see above including the UTR logo, tags, notes and screenshots. If you'd like to become a permanent poster on a website we don't post to, feel free to get in contact with a UniTeam member.


More at ibit.to
And ibit.uno
And ibit.ws

Comments

Files

Encoded by JoyBell (UTR).txt 2.7 kB
folder.jpg 6.0 kB
Godless 2017 S01E01 An Incident At Creede (2160p x265 10bit S92 Joy).mkv 2.1 GB
Godless 2017 S01E02 The Ladies Of La Belle (2160p x265 10bit S94 Joy).mkv 2.0 GB
Godless 2017 S01E03 Wisdom Of The Horse (2160p x265 10bit S92 Joy).mkv 2.2 GB
Godless 2017 S01E04 Fathers and Sons (2160p x265 10bit S91 Joy).mkv 2.0 GB
Godless 2017 S01E05 Shot The Head Off A Snake (2160p x265 10bit S92 Joy).mkv 1.5 GB
Godless 2017 S01E06 Dear Roy (2160p x265 10bit S91 Joy).mkv 1.2 GB
Godless 2017 S01E07 Homecoming (2160p x265 10bit S94 Joy).mkv 2.3 GB
How to play HEVC (THIS FILE).txt 3.4 kB
Ninite K-Lite Codecs Unattended Silent Installer and Updater.website 561 B
Godless 2017 Season 1 (2160p x265 10bit S92 Joy)/Godless 2017 S01E07 Homecoming (2160p x265 10bit S94 Joy).mkv 2.3 GB
Godless 2017 Season 1 (2160p x265 10bit S92 Joy)/folder.jpg 6.0 kB
Godless 2017 Season 1 (2160p x265 10bit S92 Joy)/Godless 2017 S01E01 An Incident At Creede (2160p x265 10bit S92 Joy).mkv 2.1 GB
Godless 2017 Season 1 (2160p x265 10bit S92 Joy)/Godless 2017 S01E02 The Ladies Of La Belle (2160p x265 10bit S94 Joy).mkv 2.0 GB
Godless 2017 Season 1 (2160p x265 10bit S92 Joy)/Godless 2017 S01E03 Wisdom Of The Horse (2160p x265 10bit S92 Joy).mkv 2.2 GB
Godless 2017 Season 1 (2160p x265 10bit S92 Joy)/Godless 2017 S01E04 Fathers and Sons (2160p x265 10bit S91 Joy).mkv 2.0 GB
Godless 2017 Season 1 (2160p x265 10bit S92 Joy)/Godless 2017 S01E05 Shot The Head Off A Snake (2160p x265 10bit S92 Joy).mkv 1.5 GB
Godless 2017 Season 1 (2160p x265 10bit S92 Joy)/Godless 2017 S01E06 Dear Roy (2160p x265 10bit S91 Joy).mkv 1.2 GB
Godless 2017 Season 1 (2160p x265 10bit S92 Joy)/Encoded by JoyBell (UTR).txt 2.7 kB
Godless 2017 Season 1 (2160p x265 10bit S92 Joy)/How to play HEVC (THIS FILE).txt 3.4 kB
Godless 2017 Season 1 (2160p x265 10bit S92 Joy)/Ninite K-Lite Codecs Unattended Silent Installer and Updater.website 500 B

Stream

Downloading Seeding Godless 2017 Season 1 (2160p x265 10bit S92 Joy) from to 0 peers.
of
0 b/s / ↗0 b/s