• 214
  • 650
  • done
ondemand_video
37%

Ghoomketu (2019)

  • Comedy Drama
  • An aspiring writer from a small town in U.P. runs away to Mumbai. He gives himself 30 days to try and prove his worth.

    expand_more
    Hindi

    Description

    https://www.gopisahi.xyz/

    Encoded And Uploded From Sadeemrdp

    image

    Format                         : Matroska

    Format version                 : Version 4

    File size                      : 728 MiB

    Duration                       : 1 h 41 min

    Overall bit rate               : 997 kb/s

    Movie name                     : Ghoomketu 2020 GOPI SAHI

    Encoded date                   : UTC 2020-05-22 12:01:02

    Writing application            : mkvmerge v46.0.0 ('No Deeper Escape') 32-bit

    Writing library                : libebml v1.3.10 + libmatroska v1.5.2

    Video

    ID                             : 1

    Format                         : AVC

    Format/Info                    : Advanced Video Codec

    Format profile                 : [email protected]

    Format settings                : CABAC / 5 Ref Frames

    Format settings, CABAC         : Yes

    Format settings, Reference fra : 5 frames

    Codec ID                       : V_MPEG4/ISO/AVC

    Duration                       : 1 h 41 min

    Bit rate                       : 899 kb/s

    Width                          : 1 280 pixels

    Height                         : 536 pixels

    Display aspect ratio           : 2.40:1

    Frame rate mode                : Constant

    Frame rate                     : 25.000 FPS

    Color space                    : YUV

    Chroma subsampling             : 4:2:0

    Bit depth                      : 8 bits

    Scan type                      : Progressive

    Bits/(Pixel*Frame)             : 0.052

    Stream size                    : 656 MiB (90%)

    Title                          : GOPI SAHI

    Writing library                : x264 core 157 r2935 545de2f

    Audio

    ID                             : 2

    Format                         : AAC LC

    Format/Info                    : Advanced Audio Codec Low Complexity

    Codec ID                       : A_AAC-2

    Duration                       : 1 h 41 min

    Bit rate                       : 96.0 kb/s

    Channel(s)                     : 2 channels

    Channel layout                 : L R

    Sampling rate                  : 48.0 kHz

    Frame rate                     : 46.875 FPS (1024 SPF)

    Compression mode               : Lossy

    Delay relative to video        : -54 ms

    Stream size                    : 70.1 MiB (10%)

    Title                          : GOPI SAHI

    Language                       : Hindi

    Default                        : Yes

    Forced                         : No

    Text

    ID                             : 3

    Format                         : UTF-8

    Codec ID                       : S_TEXT/UTF8

    Codec ID/Info                  : UTF-8 Plain Text

    Duration                       : 1 h 39 min

    Bit rate                       : 82 b/s

    Count of elements              : 1868

    Stream size                    : 60.7 KiB (0%)

    Title                          : GOPI SAHI

    Language                       : English

    Default                        : Yes

    Forced                         : No

    image

    image

    image


    More at ibit.to
    And ibit.uno
    And ibit.am
    And ibit.ws

    Reviews

    Comments

    Files

    Encoded And Uploded From Sadeemrdp.txt 128 B
    Ghoomketu 2020 GOPI SAHI.mkv 728 MB
    gopisahi.url 173 B
    sadeemrdp.url 221 B

    Stream

    Downloading Seeding Ghoomketu 2020 x264 720p Esub Zee5 Hindi Sadeemrdp GOPI SAHI from to 0 peers.
    of
    0 b/s / ↗0 b/s