• 0
  • 0
  • done
  • George Benson & Al Jarreau - Givin' It Up [CD] - 2006 (lossless)
  • 401 MB
  • samopal records
  • George Benson Jarreau Givin 2006 lossless
  • Разное (раздачи)

Description

George Benson & Al Jarreau - Givin' It Up

(2006)


image

Жанр : Soul-Jazz, Funk

Носитель : CD

Страна-производитель диска (релиза) : Europe

Год издания : 2006

Издатель (лейбл) : Concord Records, Universal Music Group Internation

Номер по каталогу : 0888072231627

Страна исполнителя (группы) : US

Аудиокодек : FLAC (*.flac)

Тип рипа : image+.cue

Продолжительность : 01:02:41

Источник : собственный рип

Наличие сканов в содержимом раздачи : да


Треклист :

  1. Breezin'
  2. Mornin'
  3. 'long come Tutu
  4. God, bless the child
  5. Summer breeze
  6. All I am
  7. Ordinary people
  8. Let it rain
  9. Givin' it up for love
  10. Every time you go away
  11. Four
  12. Don't start no schtuff
  13. Bring it on home to me

Лог создания рипа

`Exact Audio Copy V1.3 from 2. September 2016

Отчёт EAC об извлечении, выполненном 24. января 2020, 7:45

George Benson; Al Jarreau / Givin' it up

Дисковод: SONY CD-RW CRX230ED Adapter: 1 ID: 1

Режим чтения : Достоверность
Использование точного потока : Да
Отключение кэша аудио : Да
Использование указателей C2 : Нет

Коррекция смещения при чтении : 6
Способность читать области Lead-in и Lead-out : Нет
Заполнение пропущенных сэмплов тишиной : Да
Удаление блоков с тишиной в начале и конце : Нет
При вычислениях CRC использовались нулевые сэмплы : Да
Интерфейс : Встроенный Win32-интерфейс для Win NT/2000

Выходной формат : Внутренние WAV-операции
Формат сэмплов : 44.100 Гц; 16 бит; стерео

TOC извлечённого CD

Трек | Старт | Длительность | Начальный сектор | Конечный сектор


1 | 0:00.00 | 5:40.34 | 0 | 25533
2 | 5:40.34 | 5:03.30 | 25534 | 48288
3 | 10:43.64 | 6:38.34 | 48289 | 78172
4 | 17:22.23 | 3:42.03 | 78173 | 94825
5 | 21:04.26 | 5:03.13 | 94826 | 117563
6 | 26:07.39 | 3:24.00 | 117564 | 132863
7 | 29:31.39 | 5:19.37 | 132864 | 156825
8 | 34:51.01 | 4:55.00 | 156826 | 178950
9 | 39:46.01 | 3:58.41 | 178951 | 196841
10 | 43:44.42 | 4:31.00 | 196842 | 217166
11 | 48:15.42 | 5:15.37 | 217167 | 240828
12 | 53:31.04 | 4:45.29 | 240829 | 262232
13 | 58:16.33 | 4:24.07 | 262233 | 282039

Характеристики диапазона извлечения и сообщения об ошибках

Выбранный диапазон

Имя файла H:George Benson & Al Jarreau - Givin' It Up [CD] - 2006 (lossless)George Benson; Al Jarreau - Givin' It Up.wav

Пиковый уровень 99.7 %
Скорость извлечения 4.5 X
Качество диапазона 99.9 %
CRC теста DD5137B8
CRC копии DD5137B8
Копирование... OK

Ошибок не произошло

AccurateRip: сводка

Трек 1 : извлечено точно (доверие 2) C8CA7115
Трек 2 : извлечено точно (доверие 2) 433B2637
Трек 3 : извлечено точно (доверие 2) E4A83468
Трек 4 : извлечено точно (доверие 2) A77FD7F5
Трек 5 : извлечено точно (доверие 2) 96357BFD
Трек 6 : извлечено точно (доверие 2) 2B30F4C5
Трек 7 : извлечено точно (доверие 2) 95700509
Трек 8 : извлечено точно (доверие 2) 18ABF954
Трек 9 : извлечено точно (доверие 2) 50422CE6
Трек 10 : извлечено точно (доверие 2) DE24715F
Трек 11 : извлечено точно (доверие 3) AF878C1B
Трек 12 : извлечено точно (доверие 3) A7BC8E85
Трек 13 : извлечено точно (доверие 3) 552A52E0

Все треки извлечены точно

Конец отчёта

---- CUETools DB Plugin V2.1.6

[CTDB TOCID: oP4tpBGSPWR0PBMH9yRHKRZLF4w-] found
Submit result: oP4tpBGSPWR0PBMH9yRHKRZLF4w- has been confirmed
Track | CTDB Status
1 | (555/565) Accurately ripped
2 | (559/565) Accurately ripped
3 | (558/565) Accurately ripped
4 | (561/565) Accurately ripped
5 | (559/565) Accurately ripped
6 | (559/565) Accurately ripped
7 | (558/565) Accurately ripped
8 | (559/565) Accurately ripped
9 | (559/565) Accurately ripped
10 | (557/565) Accurately ripped
11 | (556/565) Accurately ripped
12 | (555/565) Accurately ripped
13 | (557/565) Accurately ripped

==== Контрольная сумма отчёта D052C50F02DA2C344E0D4B81B0208DC38BECE810A8790175AC8CAAC53A7728A9 ==== `

Содержание индексной карты (.CUE)

REM GENRE Jazz REM DATE 2006 REM DISCID C70EB00D REM COMMENT "ExactAudioCopy v1.3" PERFORMER "George Benson; Al Jarreau" TITLE "Givin' it up" REM COMPOSER "" FILE "George Benson & Al Jarreau - Givin' It Up.flac" WAVE TRACK 01 AUDIO TITLE "Breezin'" PERFORMER "George Benson & Al Jarreau" REM COMPOSER "" INDEX 01 00:00:00 TRACK 02 AUDIO TITLE "Mornin'" PERFORMER "George Benson & Al Jarreau" REM COMPOSER "" INDEX 00 05:39:19 INDEX 01 05:40:34 TRACK 03 AUDIO TITLE "'long come Tutu" PERFORMER "George Benson & Al Jarreau" REM COMPOSER "" INDEX 00 10:42:37 INDEX 01 10:43:64 TRACK 04 AUDIO TITLE "God, bless the child" PERFORMER "George Benson & Al Jarreau; Jill Scott" REM COMPOSER "" INDEX 00 17:20:46 INDEX 01 17:22:23 TRACK 05 AUDIO TITLE "Summer breeze" PERFORMER "George Benson & Al Jarreau" REM COMPOSER "" INDEX 00 21:02:15 INDEX 01 21:04:26 TRACK 06 AUDIO TITLE "All I am" PERFORMER "George Benson & Al Jarreau" REM COMPOSER "" INDEX 00 26:05:27 INDEX 01 26:07:39 TRACK 07 AUDIO TITLE "Ordinary people" PERFORMER "George Benson & Al Jarreau" REM COMPOSER "" INDEX 00 29:29:72 INDEX 01 29:31:39 TRACK 08 AUDIO TITLE "Let it rain" PERFORMER "George Benson & Al Jarreau; Patti Austin" REM COMPOSER "" INDEX 00 34:49:26 INDEX 01 34:51:01 TRACK 09 AUDIO TITLE "Givin' it up for love" PERFORMER "George Benson & Al Jarreau" REM COMPOSER "" INDEX 00 39:44:19 INDEX 01 39:46:01 TRACK 10 AUDIO TITLE "Every time you go away" PERFORMER "George Benson & Al Jarreau" REM COMPOSER "" INDEX 00 43:42:35 INDEX 01 43:44:42 TRACK 11 AUDIO TITLE "Four" PERFORMER "George Benson & Al Jarreau" REM COMPOSER "" INDEX 00 48:14:23 INDEX 01 48:15:42 TRACK 12 AUDIO TITLE "Don't start no schtuff" PERFORMER "George Benson; Al Jarreau" REM COMPOSER "" INDEX 00 53:29:57 INDEX 01 53:31:04 TRACK 13 AUDIO TITLE "Bring it on home to me" PERFORMER "George Benson; Al Jarreau; Paul McCartney" REM COMPOSER "" INDEX 00 58:14:69 INDEX 01 58:16:33

Лог проверки качества

`-----------------------

DON'T MODIFY THIS FILE


PERFORMER: auCDtect Task Manager, ver. 1.6.0 RC1 build 1.6.0.1
Copyright (c) 2008-2010 y-soft. All rights reserved
http://y-soft.org

ANALYZER: auCDtect: CD records authenticity detector, version 0.8.2
Copyright (c) 2004 Oleg Berngardt. All rights reserved.
Copyright (c) 2004 Alexander Djourik. All rights reserved.

FILE: George Benson; Al Jarreau - Givin' It Up.flac
Size: 392760770 Hash: 0000351226F5615093F43BABA121004D Accuracy: -m0
Conclusion: CDDA 100%
Signature: 0385F40B98A2F7D15B044EB5D68BB12F7CD0C1D5 `

Скриншот спектра частот

image

Dynamic Range Meter (DR14)

`foobar2000 1.1.3 / Dynamic Range Meter 1.1.1
log date: 2020-01-24 12:25:43


Statistics for: ?-George Benson & Al Jarreau - Givin' It Up
Number of samples: 165839520

Duration: 1:02:41

Left Right

Peak Value: 0.00 dB --- 0.00 dB
Avg RMS: -16.21 dB --- -16.42 dB

DR channel: 13.64 dB --- 13.85 dB

Official DR Value: DR14

Samplerate: 44100 Hz
Channels: 2
Bits per sample: 16
Bitrate: 836 kbps
Codec: FLAC
================================================================================ `

Covers

image image
image image
image image
image image
image image


image


More at ibit.to
And ibit.uno
And ibit.am
And ibit.ws

Comments

Files

George Benson & Al Jarreau - Givin' It Up [CD] - 2006 (lossless)Cover.jpg 57 kB
George Benson & Al Jarreau - Givin' It Up [CD] - 2006 (lossless)Coversscan 1.jpg 1.1 MB
George Benson & Al Jarreau - Givin' It Up [CD] - 2006 (lossless)Coversscan 10.jpg 48 kB
George Benson & Al Jarreau - Givin' It Up [CD] - 2006 (lossless)Coversscan 2.jpg 1.4 MB
George Benson & Al Jarreau - Givin' It Up [CD] - 2006 (lossless)Coversscan 3.jpg 1.1 MB
George Benson & Al Jarreau - Givin' It Up [CD] - 2006 (lossless)Coversscan 4.jpg 942 kB
George Benson & Al Jarreau - Givin' It Up [CD] - 2006 (lossless)Coversscan 5.jpg 1.1 MB
George Benson & Al Jarreau - Givin' It Up [CD] - 2006 (lossless)Coversscan 6.jpg 981 kB
George Benson & Al Jarreau - Givin' It Up [CD] - 2006 (lossless)Coversscan 7.jpg 493 kB
George Benson & Al Jarreau - Givin' It Up [CD] - 2006 (lossless)Coversscan 8.jpg 548 kB
George Benson & Al Jarreau - Givin' It Up [CD] - 2006 (lossless)Coversscan 9.jpg 150 kB
George Benson & Al Jarreau - Givin' It Up [CD] - 2006 (lossless)George Benson & Al Jarreau - Givin' It Up.cue 2.3 kB
George Benson & Al Jarreau - Givin' It Up [CD] - 2006 (lossless)George Benson & Al Jarreau - Givin' It Up.flac 393 MB
George Benson & Al Jarreau - Givin' It Up [CD] - 2006 (lossless)George Benson & Al Jarreau - Givin' It Up.flac.auCDtect.txt 1.2 kB
George Benson & Al Jarreau - Givin' It Up [CD] - 2006 (lossless)George Benson & Al Jarreau - Givin' It Up.log 8.0 kB
George Benson & Al Jarreau - Givin' It Up [CD] - 2006 (lossless)George Benson &Al Jarreau - Givin' It Up.jpg 54 kB

Stream

Downloading Seeding George Benson & Al Jarreau - Givin' It Up [CD] - 2006 (lossless) from to 0 peers.
of
0 b/s / ↗0 b/s