• 0
  • 0
  • done
Sponsored Downloadondemand_video
76%

Game of Thrones: Winterfell(2019)

  • 8 1
  • Sci-Fi & Fantasy Drama Action & Adventure
  • Arriving at Winterfell, Jon and Daenerys struggle to unite a divided North. Jon Snow gets some big news.

    expand_more
    English
    • 1
    • 2
    • 3
    • 4
    • 5
    • 6

    Description

    www.imdb.com/title/tt0944947/episodes?season=8

    Jon and Daenerys arrive in Winterfell and are met with skepticism. Sam learns about the fate of his family. Cersei gives Euron the reward he aims for. Theon follows his heart.

    Source: Memento

    image

    image

    image

    image

    image

    Format                      : MPEG-4

    Format profile              : Base Media / Version 2

    Codec ID                    : mp42 (isom/iso2/avc1/mp41)

    File size                   : 1.09 GiB

    Duration                    : 1 h 2 min

    Overall bit rate mode       : Variable

    Overall bit rate            : 2 514 kb/s

    Writing application         : HandBrake 1.2.0 2018121700

    Video

    ID                          : 1

    Format                      : AVC

    Format/Info                 : Advanced Video Codec

    Format profile              : [email protected]

    Format settings             : CABAC / 1 Ref Frames

    Format settings, CABAC      : Yes

    Format settings, ReFrames   : 1 frame

    Codec ID                    : avc1

    Codec ID/Info               : Advanced Video Coding

    Duration                    : 1 h 2 min

    Bit rate                    : 2 025 kb/s

    Width                       : 1 920 pixels

    Height                      : 1 080 pixels

    Display aspect ratio        : 16:9

    Frame rate                  : 23.976 (24000/1001) FPS

    Color space                 : YUV

    Chroma subsampling          : 4:2:0

    Bit depth                   : 8 bits

    Scan type                   : Progressive

    Bits/(Pixel*Frame)          : 0.041

    Stream size                 : 901 MiB (81%)

    Writing library             : x264 core 157 r2935 545de2f

    Audio #1

    ID                          : 2

    Format                      : AC-3

    Format/Info                 : Audio Coding 3

    Commercial name             : Dolby Digital

    Codec ID                    : ac-3

    Duration                    : 1 h 2 min

    Bit rate mode               : Constant

    Bit rate                    : 320 kb/s

    Channel(s)                  : 6 channels

    Channel layout              : L R C LFE Ls Rs

    Sampling rate               : 48.0 kHz

    Frame rate                  : 31.250 FPS (1536 SPF)

    Bit depth                   : 16 bits

    Compression mode            : Lossy

    Stream size                 : 142 MiB (13%)

    Title                       : Surround

    Language                    : English

    Audio #2

    ID                          : 3

    Format                      : AAC LC

    Format/Info                 : Advanced Audio Codec Low Complexity

    Codec ID                    : mp4a-40-2

    Duration                    : 1 h 2 min

    Bit rate mode               : Constant

    Bit rate                    : 161 kb/s

    Channel(s)                  : 2 channels

    Channel layout              : L R

    Sampling rate               : 48.0 kHz

    Frame rate                  : 46.875 FPS (1024 SPF)

    Compression mode            : Lossy

    Stream size                 : 71.4 MiB (6%)

    Title                       : Stereo

    Language                    : English

    Text

    Language                    : English

    Default                     : Yes

    Forced                      : No


    More at ibit.to
    And ibit.uno
    And ibit.ws

    Reviews

    I started watching when it came out as I heard that fans of LOTR also liked this. I stopped watching after Season 1 as I was devastated lol kinda. Only 2015 I decided to continue watching and got addicted like it seemed complicated at first, too many stories and characters. I even used a guide from internet like family tree per house while watching or GOT wiki so I can have more background on the characters. For a TV series, this show can really take you to a different world and never knowing what will happen. It is very daring that any time anybody can just die (I learned not to be attached and have accepted that they will all die so I won't be devastated hehe). I have never read the books but the show is entertaining and you will really root for your faves and really hate on those you hate. Fantasy, action, drama, comedy, love...and lots of surprises!

    Cruel, bloody, vulgar, Machiavellian, unrepentant. And that is just the writing. The camera angles, the score, the pacing mesh together for grand storytelling: a mix of horror, swords and sorcery, and endless treachery. And all of that would be somewhat squandered if it wasn't for the best casting I've ever seen. From Lena Headey as soft spoken Cersei to Peter Vaughan as ancient Maester Aemon, each character pulses with depth and believability. Peter Dinklage may have sacrificed a virgin princess to get this role; I've never seen a better fit, not in size (though there is that) but in the way his eyes convey shrewd arrogance coupled with unabashed debauchery.

    LOTR meets House of Cards. Imagine a fantasy novel if all of the beasts and mythologies were transported to the real world. There's no such thing as a happy ending, or an ending for that matter (unless you're dead). So as you watch the show make predictions, draw conspiracy theories, and watch them blow up in your face. This show is that kind of a ride!

    This series starts off like some of the best out there. Although it makes some minor adjustments, it follows the story from the books quite faithfully for the first 4 seasons. And adds a twinkle of big budget movies, and great cinematography. Truly awesome. Up until this point, I was in love with the series, a 10/10. I quickly read all the books, and re-watched all seasons before a new one would come out. However, from season 5 and onwards, it starts going downhill. They ran out of book-material, and it shows. Everything starts focusing on the big set-pieces, characters become extremely bland and predictable. From here all major characters receive plot-armor, which was one of the things it didn't have before, and that made it interesting to watch. Of course they want you to think that they will still kill some of the main characters, but they're just teasing. The last few seasons I've only been watching to see what the conclusion to this story is, but I cringe and writhe during every episode I watch. What a pitiful way to go out. Hopefully the books finish the story in a more interesting and believable way.

    Before watching this TV show I was told that it's best TV show ever. I'm big fan of Vikings TV series and when I asked opinion about GOT to my friend, he said Vikings is nothing compared to GOT. All my coworkers are GOT addicts, so finally I gave it a try. I watched all 8 seasons, so I'm quite qualified to review it: It wasn't bad TV show. Actually it was quite good with interesting characters, but it wasn't as good as I was told and I personally don't agree on that statement that it's better than Vikings. Most interesting parts where around queen Daenerys. This TV show gets tense after season 7, however things don't go like we wanted and ending is awfully bad. Basically, this TV show is ruined by stupidly bad ending which leaves you quite upset. In short, GOT is good TV show (not great), ruined by bad ending.

    Comments

    Files

    Game of Thrones S08E01 Winterfell (with Inside the Episode) 1080p 5.1 - 2.0 x264 Phun Psyz.mp4 1.1 GB

    Stream

    Downloading Seeding Game of Thrones S08E01 Winterfell (with Inside the Episode) 1080p 5.1 - 2.0 x264 Phun Psyz.mp4 from to 0 peers.
    of
    0 b/s / ↗0 b/s