• 24
  • 6
  • 1,408
  • done
Sponsored Downloadondemand_video

Description

image

Game of Thrones 2011 Season 5 in 1080p, encoded with x265 in HEVC and AAC 7.1 English, with subtitles!

Encoded using the time consuming 2 pass, 10 bit color at 2500 kbps, from a Blu-ray source, for the highest quality possible.

imageimageimageimageimageimageimageimageimageimage


** Media Information **


Code:

__ General
Format : Matroska

Format version : Version 4 / Version 2

File size : 1.12 GiB

Duration : 52 min 11 s

Overall bit rate : 3 064 kb/s

Encoded date : UTC 2016-10-18 05:22:22

Writing application : mkvmerge v9.4.0 ('Knurl') 64bit

Writing library : libebml v1.3.4 + libmatroska v1.4.5

Video
ID : 1

Format : HEVC

Format/Info : High Efficiency Video Coding

Format profile : Main [email protected]@Main

Codec ID : V_MPEGH/ISO/HEVC

Duration : 52 min 11 s

Bit rate : 2 544 kb/s

Width : 1 920 pixels

Height : 1 080 pixels

Display aspect ratio : 16:9

Frame rate mode : Constant

Frame rate : 23.976 (24000/1001) FPS

Color space : YUV

Chroma subsampling : 4:2:0

Bit depth : 10 bits

Bits/(Pixel*Frame) : 0.051

Stream size : 950 MiB (83%)

Writing library : x265 2.1+2-c0d91c2b4048:[Windows][GCC 6.2.0][64 bit] 10bit

Encoding settings : wpp / ctu=64 / min-cu-size=8 / max-tu-size=32 / tu-intra-depth=1 / tu-inter-depth=1 / me=1 / subme=2 / merange=57 / no-rect / no-amp / max-merge=2 / temporal-mvp / no-early-skip / rskip / rdpenalty=0 / no-tskip / no-tskip-fast / strong-intra-smoothing / no-lossless / no-cu-lossless / no-constrained-intra / no-fast-intra / open-gop / no-temporal-layers / interlace=0 / keyint=250 / min-keyint=23 / scenecut=40 / rc-lookahead=20 / lookahead-slices=6 / bframes=4 / bframe-bias=0 / b-adapt=2 / ref=3 / limit-refs=3 / no-limit-modes / weightp / no-weightb / aq-mode=1 / qg-size=32 / aq-strength=1.00 / cbqpoffs=0 / crqpoffs=0 / rd=3 / psy-rd=2.00 / rdoq-level=0 / psy-rdoq=0.00 / log2-max-poc-lsb=8 / no-rd-refine / signhide / deblock=0:0 / sao / no-sao-non-deblock / b-pyramid / cutree / no-intra-refresh / rc=2 / pass / bitrate=2534 / qcomp=0.60 / qpmin=0 / qpmax=69 / qpstep=4 / cplxblur=20.0 / qblur=0.5 / ipratio=1.40 / pbratio=1.30

Default : Yes

Forced : No

Audio #1
ID : 2

Format : AAC

Format/Info : Advanced Audio Codec

Format profile : LC

Codec ID : A_AAC

Duration : 52 min 11 s

Bit rate : 384 kb/s

Channel(s) : 8 channels

Channel positions : Front: L C R, Side: L R, Back: L R, LFE

Sampling rate : 48.0 kHz

Frame rate : 46.875 FPS (1024 spf)

Compression mode : Lossy

Delay relative to video : 20 ms

Stream size : 145 MiB (13%)

Language : English

Default : Yes

Forced : No

Audio #2
ID : 3

Format : AAC

Format/Info : Advanced Audio Codec

Format profile : HE-AAC / LC

Codec ID : A_AAC

Duration : 52 min 11 s

Bit rate : 55.8 kb/s

Channel(s) : 2 channels

Channel positions : Front: L R

Sampling rate : 48.0 kHz / 24.0 kHz

Frame rate : 23.438 FPS (1024 spf)

Compression mode : Lossy

Delay relative to video : 31 ms

Stream size : 20.8 MiB (2%)

Title : Commentary

Language : English

Default : No

Forced : No

Text #1
ID : 4

Format : VobSub

Muxing mode : zlib

Codec ID : S_VOBSUB

Codec ID/Info : Picture based subtitle format used on DVDs

Duration : 48 min 18 s

Bit rate : 6 326 b/s

Count of elements : 626

Stream size : 2.19 MiB (0%)

Language : English

Default : No

Forced : No

Text #2
ID : 5

Format : VobSub

Muxing mode : zlib

Codec ID : S_VOBSUB

Codec ID/Info : Picture based subtitle format used on DVDs

Duration : 1 min 35 s

Bit rate : 1 552 b/s

Count of elements : 7

Stream size : 18.1 KiB (0%)

Language : English

Default : No

Forced : Yes

Text #3
ID : 6

Format : VobSub

Muxing mode : zlib

Codec ID : S_VOBSUB

Codec ID/Info : Picture based subtitle format used on DVDs

Duration : 49 min 57 s

Bit rate : 5 126 b/s

Count of elements : 599

Stream size : 1.83 MiB (0%)

Language : French

Default : No

Forced : No

Text #4
ID : 7

Format : VobSub

Muxing mode : zlib

Codec ID : S_VOBSUB

Codec ID/Info : Picture based subtitle format used on DVDs

Duration : 46 min 49 s

Bit rate : 6 314 b/s

Count of elements : 561

Stream size : 2.11 MiB (0%)

Language : Spanish

Default : No

Forced : No

Text #5
ID : 8

Format : VobSub

Muxing mode : zlib

Codec ID : S_VOBSUB

Codec ID/Info : Picture based subtitle format used on DVDs

Duration : 46 min 49 s

Bit rate : 6 271 b/s

Count of elements : 529

Stream size : 2.10 MiB (0%)

Language : German

Default : No

Forced : No

Text #6
ID : 9

Format : VobSub

Muxing mode : zlib

Codec ID : S_VOBSUB

Codec ID/Info : Picture based subtitle format used on DVDs

Duration : 1 min 36 s

Bit rate : 1 736 b/s

Count of elements : 7

Stream size : 20.4 KiB (0%)

Title : Forced

Language : German

Default : No

Forced : No

Text #7
ID : 10

Format : VobSub

Muxing mode : zlib

Codec ID : S_VOBSUB

Codec ID/Info : Picture based subtitle format used on DVDs

Duration : 47 min 13 s

Bit rate : 6 069 b/s

Count of elements : 506

Stream size : 2.05 MiB (0%)

Language : Czech

Default : No

Forced : No

Text #8
ID : 11

Format : VobSub

Muxing mode : zlib

Codec ID : S_VOBSUB

Codec ID/Info : Picture based subtitle format used on DVDs

Duration : 51 min 54 s

Bit rate : 4 502 b/s

Count of elements : 471

Stream size : 1.67 MiB (0%)

Language : Polish

Default : No

Forced : No

Text #9
ID : 12

Format : VobSub

Muxing mode : zlib

Codec ID : S_VOBSUB

Codec ID/Info : Picture based subtitle format used on DVDs

Duration : 46 min 49 s

Bit rate : 6 392 b/s

Count of elements : 582

Stream size : 2.14 MiB (0%)

Language : Portuguese

Default : No

Forced : No

Text #10
ID : 13

Format : VobSub

Muxing mode : zlib

Codec ID : S_VOBSUB

Codec ID/Info : Picture based subtitle format used on DVDs

Duration : 46 min 49 s

Bit rate : 6 196 b/s

Count of elements : 586

Stream size : 2.08 MiB (0%)

Language : Dutch

Default : No

Forced : No

Text #11
ID : 14

Format : VobSub

Muxing mode : zlib

Codec ID : S_VOBSUB

Codec ID/Info : Picture based subtitle format used on DVDs

Duration : 46 min 49 s

Bit rate : 6 017 b/s

Count of elements : 584

Stream size : 2.02 MiB (0%)

Language : Danish

Default : No

Forced : No

Text #12
ID : 15

Format : VobSub

Muxing mode : zlib

Codec ID : S_VOBSUB

Codec ID/Info : Picture based subtitle format used on DVDs

Duration : 46 min 49 s

Bit rate : 5 452 b/s

Count of elements : 580

Stream size : 1.83 MiB (0%)

Language : Finnish

Default : No

Forced : No

Text #13
ID : 16

Format : VobSub

Muxing mode : zlib

Codec ID : S_VOBSUB

Codec ID/Info : Picture based subtitle format used on DVDs

Duration : 46 min 49 s

Bit rate : 5 809 b/s

Count of elements : 586

Stream size : 1.95 MiB (0%)

Language : Norwegian Bokmal

Default : No

Forced : No

Text #14
ID : 17

Format : VobSub

Muxing mode : zlib

Codec ID : S_VOBSUB

Codec ID/Info : Picture based subtitle format used on DVDs

Duration : 46 min 49 s

Bit rate : 6 017 b/s

Count of elements : 586

Stream size : 2.02 MiB (0%)

Language : Swedish

Default : No

Forced : No

Text #15
ID : 18

Format : VobSub

Muxing mode : zlib

Codec ID : S_VOBSUB

Codec ID/Info : Picture based subtitle format used on DVDs

Duration : 49 min 58 s

Bit rate : 6 802 b/s

Count of elements : 599

Stream size : 2.43 MiB (0%)

Language : Greek

Default : No

Forced : No

Menu
00:00:00.000 : en:Chapter 01

00:01:55.740 : en:Chapter 02

00:09:25.022 : en:Chapter 03

00:18:00.662 : en:Chapter 04

00:24:16.913 : en:Chapter 05

00:32:26.819 : en:Chapter 06

00:41:24.106 : en:Chapter 07

00:50:52.507 : en:Chapter 08

__


** Source Information **


Code:

__ Complete name : Game of Thrones S05E01 The Wars to Come.mkv

File size : 11.9 GiB

Duration : 52mn 11s

Overall bit rate mode : Variable

Overall bit rate : 32.6 Mbps

Complete name : Game of Thrones S05E02 The House of Black and White.mkv

File size : 12.7 GiB

Duration : 55mn 34s

Overall bit rate mode : Variable

Overall bit rate : 32.7 Mbps

Complete name : Game of Thrones S05E03 High Sparrow.mkv

File size : 10.7 GiB

Duration : 59mn 56s

Overall bit rate mode : Variable

Overall bit rate : 25.6 Mbps

Complete name : Game of Thrones S05E04 Sons of the Harpy.mkv

File size : 9.10 GiB

Duration : 50mn 25s

Overall bit rate mode : Variable

Overall bit rate : 25.8 Mbps

Complete name : Game of Thrones S05E05 Kill the Boy.mkv

File size : 10.1 GiB

Duration : 56mn 42s

Overall bit rate mode : Variable

Overall bit rate : 25.5 Mbps

Complete name : Game of Thrones S05E06 Unbowed, Unbent, Unbroken.mkv

File size : 9.52 GiB

Duration : 53mn 42s

Overall bit rate mode : Variable

Overall bit rate : 25.4 Mbps

Complete name : Game of Thrones S05E07 The Gift.mkv

File size : 10.3 GiB

Duration : 58mn 51s

Overall bit rate mode : Variable

Overall bit rate : 25.0 Mbps

Complete name : Game of Thrones S05E08 Hardhome.mkv

File size : 11.2 GiB

Duration : 1h 0mn

Overall bit rate mode : Variable

Overall bit rate : 26.8 Mbps

Complete name : Game of Thrones S05E09 The Dance of Dragons.mkv

File size : 9.30 GiB

Duration : 52mn 22s

Overall bit rate mode : Variable

Overall bit rate : 25.4 Mbps

Complete name : Game of Thrones S05E10 Mother's Mercy.mkv

File size : 10.3 GiB

Duration : 1h 0mn

Overall bit rate mode : Variable

Overall bit rate : 24.6 Mbps

__


More at ibit.to
And ibit.uno
And ibit.ws

Comments

1 year ago

Can any one please tell me what type of player it requires? The audio is not working well!Thanks

Files

Featurettes/A Day in the Life.mkv 306 MB
Featurettes/Anatomy of an Episode - Mother's Mercy.mkv 350 MB
Featurettes/Deleted Scenes.mkv 93 MB
Featurettes/Histories & Lore - Braavos.mkv 66 MB
Featurettes/Histories & Lore - Dorne.mkv 55 MB
Featurettes/Histories & Lore - Greyscale & The Stone Men.mkv 28 MB
Featurettes/Histories & Lore - Robert's Rebellion.mkv 69 MB
Featurettes/Histories & Lore - The Dance of Dragons.mkv 243 MB
Featurettes/Histories & Lore - The Faceless Men.mkv 31 MB
Featurettes/Histories & Lore - The Faith Militant.mkv 69 MB
Featurettes/Histories & Lore - The Fighting Pits of Meereen.mkv 34 MB
Featurettes/Histories & Lore - The Great Masters of Meereen.mkv 32 MB
Featurettes/Histories & Lore - The Lord Commanders.mkv 40 MB
Featurettes/Histories & Lore - The Many-Faced God.mkv 35 MB
Featurettes/Histories & Lore - The River Rhoyne.mkv 54 MB
Featurettes/Histories & Lore - The Seven-Pointed Star.mkv 41 MB
Featurettes/Histories & Lore - Volantis.mkv 59 MB
Featurettes/Histories & Lore - Winterfell.mkv 36 MB
Featurettes/New Characters - New Locations.mkv 91 MB
Featurettes/The Final Step.mkv 316 MB
Featurettes/The Massacre at Hardhome.mkv 343 MB
Featurettes/The Real History Behind Game of Thrones - Part 1.mkv 215 MB
Featurettes/The Real History Behind Game of Thrones - Part 2.mkv 260 MB
Featurettes/Visual Effects of Season 5.mkv 312 MB
Game of Thrones S05E01 The Wars to Come (1080p x265 10bit Tigole).mkv 1.1 GB
Game of Thrones S05E02 The House of Black and White (1080p x265 10bit Tigole).mkv 1.2 GB
Game of Thrones S05E03 High Sparrow (1080p x265 10bit Tigole).mkv 1.3 GB
Game of Thrones S05E04 Sons of the Harpy (1080p x265 10bit Tigole).mkv 1.1 GB
Game of Thrones S05E05 Kill the Boy (1080p x265 10bit Tigole).mkv 1.2 GB
Game of Thrones S05E06 Unbowed, Unbent, Unbroken (1080p x265 10bit Tigole).mkv 1.1 GB
Game of Thrones S05E07 The Gift (1080p x265 10bit Tigole).mkv 1.2 GB
Game of Thrones S05E08 Hardhome (1080p x265 10bit Tigole).mkv 1.3 GB
Game of Thrones S05E09 The Dance of Dragons (1080p x265 10bit Tigole).mkv 1.1 GB
Game of Thrones S05E10 Mother's Mercy (1080p x265 10bit Tigole).mkv 1.3 GB
A Day in the Life.mkv 306 MB
Anatomy of an Episode Mother's Mercy.mkv 350 MB
Deleted Scenes.mkv 93 MB
Histories & Lore Braavos.mkv 66 MB
Histories & Lore Dorne.mkv 55 MB
Histories & Lore Greyscale & The Stone Men.mkv 28 MB
Histories & Lore Robert's Rebellion.mkv 69 MB
Histories & Lore The Dance of Dragons.mkv 243 MB
Histories & Lore The Faceless Men.mkv 31 MB
Histories & Lore The Faith Militant.mkv 69 MB
Histories & Lore The Fighting Pits of Meereen.mkv 34 MB
Histories & Lore The Great Masters of Meereen.mkv 32 MB
Histories & Lore The Lord Commanders.mkv 40 MB
Histories & Lore The Many-Faced God.mkv 35 MB
Histories & Lore The River Rhoyne.mkv 54 MB
Histories & Lore The Seven-Pointed Star.mkv 41 MB
Histories & Lore Volantis.mkv 59 MB
Histories & Lore Winterfell.mkv 36 MB
New Characters New Locations.mkv 91 MB
The Final Step.mkv 316 MB
The Massacre at Hardhome.mkv 343 MB
The Real History Behind Game of Thrones Part 1.mkv 215 MB
The Real History Behind Game of Thrones Part 2.mkv 260 MB
Visual Effects of Season 5.mkv 312 MB
Game of Thrones S05E02 The House of Black and White (1080p x265 10bit 1.2 GB
Game of Thrones S05E06 Unbowed, Unbent, Unbroken (1080p x265 10bit Tig 1.2 GB
Game of Thrones S05E09 The Dance of Dragons (1080p x265 10bit Tigole). 1.1 GB

Stream

Downloading Seeding Game of Thrones 2011 Season 5 S05 (1080p Bluray x265 HEVC 10bit AAC 7.1 Tigole) from to 0 peers.
of
0 b/s / ↗0 b/s