• 8
  • 3
  • 1,177
  • done
Anonymous Downloadondemand_video
Warning! Use a VPN When Downloading Torrents!
Your IP Address is ,
Your Internet Provider can see when you download torrents! Hide your IP ADDRESS with a VPN
We strongly recommend hide.me VPN to hide your torrenting. It's FREE!
DOWNLOAD VPN

Description

image

Game of Thrones 2011 Season 3 in 1080p, encoded with x265 in HEVC and AAC 7.1 English, with subtitles!

Encoded using the time consuming 2 pass, 10 bit color at 2500 kbps, from a Blu-ray source, for the highest quality possible.

imageimageimageimageimageimageimageimageimageimage


** Media Information **


Code:

__ General
Format : Matroska

Format version : Version 4 / Version 2

File size : 1.14 GiB

Duration : 54 min 33 s

Overall bit rate : 2 989 kb/s

Encoded date : UTC 2016-10-06 02:32:21

Writing application : mkvmerge v9.2.0 ('Photograph') 64bit

Writing library : libebml v1.3.3 + libmatroska v1.4.4

Video
ID : 1

Format : HEVC

Format/Info : High Efficiency Video Coding

Format profile : Main [email protected]@Main

Codec ID : V_MPEGH/ISO/HEVC

Duration : 54 min 33 s

Bit rate : 2 524 kb/s

Width : 1 920 pixels

Height : 1 080 pixels

Display aspect ratio : 16:9

Frame rate mode : Constant

Frame rate : 23.976 (24000/1001) FPS

Color space : YUV

Chroma subsampling : 4:2:0

Bit depth : 10 bits

Bits/(Pixel*Frame) : 0.051

Stream size : 985 MiB (84%)

Writing library : x265 2.1+2-c0d91c2b4048:[Windows][GCC 6.2.0][64 bit] 10bit

Encoding settings : wpp / ctu=64 / min-cu-size=8 / max-tu-size=32 / tu-intra-depth=1 / tu-inter-depth=1 / me=1 / subme=2 / merange=57 / no-rect / no-amp / max-merge=2 / temporal-mvp / no-early-skip / rskip / rdpenalty=0 / no-tskip / no-tskip-fast / strong-intra-smoothing / no-lossless / no-cu-lossless / no-constrained-intra / no-fast-intra / open-gop / no-temporal-layers / interlace=0 / keyint=250 / min-keyint=23 / scenecut=40 / rc-lookahead=20 / lookahead-slices=6 / bframes=4 / bframe-bias=0 / b-adapt=2 / ref=3 / limit-refs=3 / no-limit-modes / weightp / no-weightb / aq-mode=1 / qg-size=32 / aq-strength=1.00 / cbqpoffs=0 / crqpoffs=0 / rd=3 / psy-rd=2.00 / rdoq-level=0 / psy-rdoq=0.00 / log2-max-poc-lsb=8 / no-rd-refine / signhide / deblock=0:0 / sao / no-sao-non-deblock / b-pyramid / cutree / no-intra-refresh / rc=2 / pass / bitrate=2517 / qcomp=0.60 / qpmin=0 / qpmax=69 / qpstep=4 / cplxblur=20.0 / qblur=0.5 / ipratio=1.40 / pbratio=1.30

Default : Yes

Forced : No

Audio
ID : 2

Format : AAC

Format/Info : Advanced Audio Codec

Format profile : LC

Codec ID : A_AAC

Duration : 54 min 33 s

Bit rate : 397 kb/s

Channel(s) : 8 channels

Channel positions : Front: L C R, Side: L R, Back: L R, LFE

Sampling rate : 48.0 kHz

Frame rate : 46.875 FPS (1024 spf)

Compression mode : Lossy

Delay relative to video : 20 ms

Stream size : 155 MiB (13%)

Language : English

Default : Yes

Forced : No

Text #1
ID : 3

Format : VobSub

Muxing mode : zlib

Codec ID : S_VOBSUB

Codec ID/Info : Picture based subtitle format used on DVDs

Duration : 52 min 50 s

Bit rate : 6 600 b/s

Count of elements : 710

Stream size : 2.49 MiB (0%)

Language : English

Default : No

Forced : No

Text #2
ID : 4

Format : VobSub

Muxing mode : zlib

Codec ID : S_VOBSUB

Codec ID/Info : Picture based subtitle format used on DVDs

Duration : 3 min 9 s

Bit rate : 3 404 b/s

Count of elements : 21

Stream size : 78.9 KiB (0%)

Language : English

Default : No

Forced : Yes

Text #3
ID : 5

Format : VobSub

Muxing mode : zlib

Codec ID : S_VOBSUB

Codec ID/Info : Picture based subtitle format used on DVDs

Duration : 51 min 56 s

Bit rate : 5 492 b/s

Count of elements : 655

Stream size : 2.04 MiB (0%)

Language : French

Default : No

Forced : No

Text #4
ID : 6

Format : VobSub

Muxing mode : zlib

Codec ID : S_VOBSUB

Codec ID/Info : Picture based subtitle format used on DVDs

Duration : 52 min 44 s

Bit rate : 6 107 b/s

Count of elements : 587

Stream size : 2.30 MiB (0%)

Language : Spanish

Default : No

Forced : No

Text #5
ID : 7

Format : VobSub

Muxing mode : zlib

Codec ID : S_VOBSUB

Codec ID/Info : Picture based subtitle format used on DVDs

Duration : 52 min 45 s

Bit rate : 6 141 b/s

Count of elements : 556

Stream size : 2.32 MiB (0%)

Language : German

Default : No

Forced : No

Text #6
ID : 8

Format : VobSub

Muxing mode : zlib

Codec ID : S_VOBSUB

Codec ID/Info : Picture based subtitle format used on DVDs

Duration : 3 min 9 s

Bit rate : 3 241 b/s

Count of elements : 22

Stream size : 75.2 KiB (0%)

Title : Forced

Language : German

Default : No

Forced : No

Text #7
ID : 9

Format : VobSub

Muxing mode : zlib

Codec ID : S_VOBSUB

Codec ID/Info : Picture based subtitle format used on DVDs

Duration : 54 min 18 s

Bit rate : 7 112 b/s

Count of elements : 715

Stream size : 2.76 MiB (0%)

Language : Italian

Default : No

Forced : No

Text #8
ID : 10

Format : VobSub

Muxing mode : zlib

Codec ID : S_VOBSUB

Codec ID/Info : Picture based subtitle format used on DVDs

Duration : 52 min 58 s

Bit rate : 6 296 b/s

Count of elements : 616

Stream size : 2.39 MiB (0%)

Language : Portuguese

Default : No

Forced : No

Text #9
ID : 11

Format : VobSub

Muxing mode : zlib

Codec ID : S_VOBSUB

Codec ID/Info : Picture based subtitle format used on DVDs

Duration : 52 min 44 s

Bit rate : 5 970 b/s

Count of elements : 583

Stream size : 2.25 MiB (0%)

Language : Dutch

Default : No

Forced : No

Text #10
ID : 12

Format : VobSub

Muxing mode : zlib

Codec ID : S_VOBSUB

Codec ID/Info : Picture based subtitle format used on DVDs

Duration : 52 min 44 s

Bit rate : 5 989 b/s

Count of elements : 583

Stream size : 2.26 MiB (0%)

Language : Danish

Default : No

Forced : No

Text #11
ID : 13

Format : VobSub

Muxing mode : zlib

Codec ID : S_VOBSUB

Codec ID/Info : Picture based subtitle format used on DVDs

Duration : 52 min 44 s

Bit rate : 5 352 b/s

Count of elements : 583

Stream size : 2.02 MiB (0%)

Language : Finnish

Default : No

Forced : No

Text #12
ID : 14

Format : VobSub

Muxing mode : zlib

Codec ID : S_VOBSUB

Codec ID/Info : Picture based subtitle format used on DVDs

Duration : 52 min 44 s

Bit rate : 5 394 b/s

Count of elements : 583

Stream size : 2.04 MiB (0%)

Language : Norwegian Bokmal

Default : No

Forced : No

Text #13
ID : 15

Format : VobSub

Muxing mode : zlib

Codec ID : S_VOBSUB

Codec ID/Info : Picture based subtitle format used on DVDs

Duration : 52 min 44 s

Bit rate : 5 780 b/s

Count of elements : 583

Stream size : 2.18 MiB (0%)

Language : Swedish

Default : No

Forced : No

Menu
00:00:00.000 : en:Chapter 01

00:00:08.466 : en:Chapter 02

00:05:08.558 : en:Chapter 03

00:12:30.249 : en:Chapter 04

00:18:53.549 : en:Chapter 05

00:26:47.856 : en:Chapter 06

00:35:26.374 : en:Chapter 07

00:43:20.306 : en:Chapter 08

00:53:14.024 : en:Chapter 09

__


** Source Information **


Code:

__ Complete name : Game of Thrones S03E01 Valar Dohaeris.mkv

File size : 10.5 GiB

Duration : 54mn 33s

Overall bit rate mode : Variable

Overall bit rate : 27.5 Mbps

Complete name : Game of Thrones S03E02 Dark Wings, Dark Words.mkv

File size : 11.1 GiB

Duration : 57mn 7s

Overall bit rate mode : Variable

Overall bit rate : 27.9 Mbps

Complete name : Game of Thrones S03E03 - Walk of Punishment.mkv

File size : 10.5 GiB

Duration : 52mn 51s

Overall bit rate mode : Variable

Overall bit rate : 28.3 Mbps

Complete name : Game of Thrones S03E04 - And Now His Watch Is Ended.mkv

File size : 9.73 GiB

Duration : 53mn 26s

Overall bit rate mode : Variable

Overall bit rate : 26.1 Mbps

Complete name : Game of Thrones S03E05 Kissed by Fire.mkv

File size : 10.4 GiB

Duration : 57mn 27s

Overall bit rate mode : Variable

Overall bit rate : 25.9 Mbps

Complete name : Game of Thrones S03E06 The Climb.mkv

File size : 9.80 GiB

Duration : 53mn 24s

Overall bit rate mode : Variable

Overall bit rate : 26.3 Mbps

Complete name : Game of Thrones S03E07 The Bear and the Maiden Fair.mkv

File size : 10.4 GiB

Duration : 57mn 39s

Overall bit rate mode : Variable

Overall bit rate : 25.9 Mbps

Complete name : Game of Thrones S03E08 Second Sons.mkv

File size : 10.1 GiB

Duration : 56mn 23s

Overall bit rate mode : Variable

Overall bit rate : 25.6 Mbps

Complete name : Game of Thrones S03E09 The Rains of Castamere.mkv

File size : 9.34 GiB

Duration : 50mn 50s

Overall bit rate mode : Variable

Overall bit rate : 26.3 Mbps

Complete name : Game of Thrones S03E10 Mhysa.mkv

File size : 12.2 GiB

Duration : 1h 2mn

Overall bit rate mode : Variable

Overall bit rate : 27.7 Mbps

__


More at ibit.to
And ibit.uno
And ibit.am
And ibit.ws

Comments

2 years ago

can anyone add subtitle file for this? or link? pls

2 years ago

This has subtitles. What kind of subtitles are your searching for?

2 years ago

@UTRplus, I just need .SRT files. especially for history & lore.

Files

Featurettes/A Gathering Storm.mkv 168 MB
Featurettes/Deleted and Extended Scenes.mkv 168 MB
Featurettes/Full Recap.mkv 119 MB
Featurettes/Histories & Lore - House Bolton.mkv 31 MB
Featurettes/Histories & Lore - House Frey.mkv 49 MB
Featurettes/Histories & Lore - House Reed.mkv 40 MB
Featurettes/Histories & Lore - House Tully.mkv 56 MB
Featurettes/Histories & Lore - Old Ghis & Slaver's Bay.mkv 32 MB
Featurettes/Histories & Lore - Robert's Rebellion.mkv 60 MB
Featurettes/Histories & Lore - The Lord of Light.mkv 43 MB
Featurettes/Histories & Lore - The North.mkv 55 MB
Featurettes/Histories & Lore - The Reach.mkv 57 MB
Featurettes/Histories & Lore - The Red Keep.mkv 46 MB
Featurettes/Histories & Lore - The Riverlands.mkv 48 MB
Featurettes/Histories & Lore - The Stormlands.mkv 62 MB
Featurettes/Histories & Lore - The Unsullied.mkv 47 MB
Featurettes/Histories & Lore - The Vale.mkv 45 MB
Featurettes/Histories & Lore - The Westerlands.mkv 45 MB
Featurettes/Histories & Lore - Wargs and the Sight.mkv 33 MB
Featurettes/Inside the Wildlings.mkv 76 MB
Featurettes/New Characters.mkv 115 MB
Featurettes/The Politics of Marriage.mkv 103 MB
Featurettes/The Rains of Castamere Unveiled - Arya and The Hound.mkv 14 MB
Featurettes/The Rains of Castamere Unveiled - Arya's Transition.mkv 16 MB
Featurettes/The Rains of Castamere Unveiled - Dany's Love Triangle.mkv 12 MB
Featurettes/The Rains of Castamere Unveiled - Dany's Motivation - Freeing the Slaves.mkv 26 MB
Featurettes/The Rains of Castamere Unveiled - Guest Right.mkv 11 MB
Featurettes/The Rains of Castamere Unveiled - History of Slaver's Bay.mkv 18 MB
Featurettes/The Rains of Castamere Unveiled - History of The Gift.mkv 9.2 MB
Featurettes/The Rains of Castamere Unveiled - History of the Nightfort.mkv 15 MB
Featurettes/The Rains of Castamere Unveiled - Jon's Inner Struggle.mkv 20 MB
Featurettes/The Rains of Castamere Unveiled - Jon's Tragic Flaw.mkv 14 MB
Featurettes/The Rains of Castamere Unveiled - Marriage in Westeros.mkv 21 MB
Featurettes/The Rains of Castamere Unveiled - One Must Suffer For Art.mkv 14 MB
Featurettes/The Rains of Castamere Unveiled - Roose Bolton's Motivation.mkv 31 MB
Featurettes/The Rains of Castamere Unveiled - Sam the Wizard.mkv 16 MB
Featurettes/The Rains of Castamere Unveiled - The Bedding Ceremony.mkv 16 MB
Featurettes/The Rains of Castamere Unveiled - The Free Companies of Essos.mkv 21 MB
Featurettes/The Rains of Castamere Unveiled - The Music.mkv 31 MB
Featurettes/The Rains of Castamere Unveiled - The Red Wedding 1.mkv 149 MB
Featurettes/The Rains of Castamere Unveiled - The Red Wedding 2.mkv 137 MB
Featurettes/The Rains of Castamere Unveiled - The Stark State of Mind.mkv 14 MB
Featurettes/The Rains of Castamere Unveiled - The Temptation of Jon Snow.mkv 14 MB
Featurettes/The Rains of Castamere Unveiled - The Ultimate Surprise.mkv 16 MB
Featurettes/The Rains of Castamere Unveiled - VFX - Creating the Twins.mkv 18 MB
Featurettes/The Rains of Castamere Unveiled - VFX - Creating the Wall.mkv 14 MB
Featurettes/The Rains of Castamere Unveiled - Wildling Raiders.mkv 22 MB
Featurettes/The Rains of Castamere Unveiled.mkv 548 MB
Game of Thrones S03E01 Valar Dohaeris (1080p x265 10bit Tigole).mkv 1.1 GB
Game of Thrones S03E02 Dark Wings, Dark Words (1080p x265 10bit Tigole).mkv 1.2 GB
Game of Thrones S03E03 Walk of Punishment (1080p x265 10bit Tigole).mkv 1.2 GB
Game of Thrones S03E04 And Now His Watch Is Ended (1080p x265 10bit Tigole).mkv 1.1 GB
Game of Thrones S03E05 Kissed by Fire (1080p x265 10bit Tigole).mkv 1.2 GB
Game of Thrones S03E06 The Climb (1080p x265 10bit Tigole).mkv 1.2 GB
Game of Thrones S03E07 The Bear and the Maiden Fair (1080p x265 10bit Tigole).mkv 1.2 GB
Game of Thrones S03E08 Second Sons (1080p x265 10bit Tigole).mkv 1.2 GB
Game of Thrones S03E09 The Rains of Castamere (1080p x265 10bit Tigole).mkv 1.1 GB
Game of Thrones S03E10 Mhysa (1080p x265 10bit Tigole).mkv 1.3 GB

Stream

Downloading Seeding Game of Thrones 2011 Season 3 S03 (1080p Bluray x265 HEVC 10bit AAC 7.1 Tigole) from to 0 peers.
of
0 b/s / ↗0 b/s