• 0
  • 0
  • done
Sponsored Downloadondemand_video
  • Futureworld HDTVRip.avi
  • 746 MB
  • 002959
  • Futureworld HDTVRip avi
  • Зарубежное кино
77%

Happy Together (1997)

  • Drama Romance
  • A couple take a trip to Argentina in search of a new beginning, but instead find themselves drifting ever further apart.

    expand_more
    Chinese

    Description

    Мир будущего / Futureworld

    image

    Страна : США

    Жанр : фантастика, триллер, детектив

    Год выпуска : 1976

    Продолжительность : 01:43:01

    Перевод : Профессиональный (двухголосый закадровый) НТВ+

    Субтитры : нет

    Режиссер : Ричард Т. Хеффрон / Richard T. Heffron

    В ролях : Питер Фонда, Блайт Дэннер, Артур Хилл, Юл Бриннер, Джон П. Райан, Стюарт Марголин, Аллен Людден, Роберт Корнтуэйт, Анджела Грин, Даррел Ларсон, Нэнси Белл, Берт Конрой, Дороти Конрад, Джон Фудзиока, Дана Ли.

    Описание : В городе роботов «Делос», в котором недавно произошло «восстание машин», восстановлен порядок, и журналисты приглашены лично засвидетельствовать, что отныне все спокойно в “мире Запада”. Но в действительности два журналиста, Чак Браунинг и Трейси Баллард, раскрывают секрет города…

    image image

    Доп. информация : Фильм является продолжением фильма Мир Дикого Запада / Westworld

    Качество видео : HDTVRip Исходник

    Формат видео : AVI

    Видео : 640x352, 25.000 fps, XviD ~875 kbps avg, 0.155 bit/pixel

    Аудио : 48 kHz, MPEG Layer 3, 2 ch, ~128 kbps avg

    Релиз группы

    image

    MediaInfo

    Код:

    General
    Complete name                    : D:Futureworld.avi
    Format                           : AVI
    Format/Info                      : Audio Video Interleave
    File size                        : 746 MiB
    Duration                         : 1h 43mn
    Overall bit rate                 : 1 012 Kbps
    Writing application              : VirtualDubMod 1.5.10.3 | www.virtualdub-fr.org || (build 2550/release)
    Writing library                  : VirtualDubMod build 2550/release

    Video
    ID                               : 0
    Format                           : MPEG-4 Visual
    Format profile                   : Advanced Simple@L5
    Format settings, BVOP            : 1
    Format settings, QPel            : No
    Format settings, GMC             : No warppoints
    Format settings, Matrix          : Default (MPEG)
    Codec ID                         : XVID
    Codec ID/Hint                    : XviD
    Duration                         : 1h 43mn
    Bit rate                         : 875 Kbps
    Width                            : 640 pixels
    Height                           : 352 pixels
    Display aspect ratio             : 16:9
    Frame rate                       : 25.000 fps
    Color space                      : YUV
    Chroma subsampling               : 4:2:0
    Bit depth                        : 8 bits
    Scan type                        : Progressive
    Compression mode                 : Lossy
    Bits/(Pixel*Frame)               : 0.155
    Stream size                      : 644 MiB (86%)
    Writing library                  : XviD 1.2.1 (UTC 2008-12-04)

    Audio
    ID                               : 1
    Format                           : MPEG Audio
    Format version                   : Version 1
    Format profile                   : Layer 3
    Codec ID                         : 55
    Codec ID/Hint                    : MP3
    Duration                         : 1h 43mn
    Bit rate mode                    : Constant
    Bit rate                         : 128 Kbps
    Channel(s)                       : 2 channels
    Sampling rate                    : 48.0 KHz
    Compression mode                 : Lossy
    Stream size                      : 94.3 MiB (13%)
    Alignment                        : Aligned on interleaves
    Interleave, duration             : 40 ms (1.00 video frame)
    Interleave, preload duration     : 504 ms
    Writing library                  : LAME3.98r
    Encoding settings                : -m s -V 4 -q 2 -lowpass 17 -b 128

    Скриншот c названием фильма

    image

    Скриншоты

    imageimageimageimageimageimageimageimageimage


    More at ibit.to
    And ibit.uno
    And ibit.ws

    Reviews

    Comments

    8 years ago

    рассинхрон и качество плохое...

    8 years ago

    frostyden писал(а): рассинхрон и качество плохое... Цитата: .torrent скачан: 159 раз у остальных нормально

    8 years ago

    002959 писал(а): frostyden писал(а): рассинхрон и качество плохое... Цитата: .torrent скачан: 159 раз у остальных нормально Реальный рассинхрон где то 300 мс, может не плавающий вот народ и не жалуется... Вапще семпл надо выкладывать с каких пор раздача проверяется без семпла.Криво отэнкодить исходник много ума не надо...Вот здесь порядок его и скачал

    7 years ago

    первая часть интереснее всё таки, тут больше про людей, а не сам мир Рассинхрона не заметил))

    6 years ago

    Рассинхрон, для слабоумных объясняю - это когда звук запаздывает/опережает изображение. Тем, кому медведь на ухо наступил, рассинхрон +-200 ms не заметят, но тут же пардон, плять пол секунды!!!!!!!! Раздача гавно!!!! Кто выставил статус "проверено"?????????P.s. подогнал в mkvmerge задержка +500ms

    4 years ago

    002959 У вас ссылка на IMDB ведет к иной картине.

    Files

    Futureworld HDTVRip.avi 746 MB

    Stream

    Downloading Seeding Futureworld HDTVRip.avi from to 0 peers.
    of
    0 b/s / ↗0 b/s