• 8
  • 11
Sponsored Downloadondemand_video
  • Free solo sfida estrema (2018).720p.h264.ita-MIRCrew.mkv
  • 1.6 GB
  • robbyrs
  • Free solo sfida estrema 2018 720p h264 ita MIRCrew mkv
  • Italian
  • HD 720p
80%

Free Solo (2018)

  • Documentary
  • Follow Alex Honnold as he attempts to become the first person to ever free solo climb Yosemite's 3,000 foot high El Capitan wall. With no ropes or safety gear, this would arguably be the greatest feat in rock climbing history.

    expand_more
    English

    Description

    Free Solo - Sfida Estrema (2018).720p.H264.ita.Ac3-5.1-MIRCrew

    image

    NO FOUND ONLY ORIGINAL RELEASE

    My release is always in double track audio italian and Original audio

    for select it use VLC or dvd player home

    not use wmp

    Free Solo - Sfida Estrema (2018)

    Quality MIRCrew on HD 720p da  1,5 gb

    image

    image

    image

    image

    Riconoscimenti

        2019 - Premio Oscar

            Oscar al miglior documentario

        2019 - BAFTA

            Miglior documentario

    Genere: Documentario

    Anno: 2018

    Regia: Jimmy Chin, Elizabeth Chai Vasarhelyi

    Paese: USA

    Fotografia: Jimmy Chin, Clair Popkin, Mikey Schaefer

    Montaggio: Bob Eisenhardt

    Musiche: Marco Beltrami

    image

    Alex Honnold: se stesso

    image

    Free Solo, il film diretto da Jimmy Chin e Elizabeth Chai Vasarhelyi, racconta le imprese dello spericolato free climber Alex Honnold, e in particolare la sua leggendaria scalata in solitaria e senza alcuna corda di assicurazione dei mille metri della la parete del El Captain, la montagna situata nel Parco nazionale di Yosemite, avvenuta il 3 giugno del 2017.

    image

    Alex Honnold attempts to become the first person to ever free solo climb El Capitan.

    image   

    image image image

    image

    General

    Unique ID                                : 54234217574319969393753682422837294586 (0x28CD215F839C2BC758D02EAF51D035FA)

    Complete name                            : Free solo sfida estrema (2018).720p.h264.ita-MIRCrew.mkv

    Format                                   : Matroska

    Format version                           : Version 2

    File size                                : 1.55 GiB

    Duration                                 : 1h 37mn

    Overall bit rate                         : 2 283 Kbps

    Movie name                               : MIRcrew

    Encoded date                             : UTC 2019-07-02 21:23:46

    Writing application                      : Lavf54.63.100

    Writing library                          : Lavf54.63.100

    COMMENT                                  : mircrew-releases

    Video

    ID                                       : 1

    Format                                   : AVC

    Format/Info                              : Advanced Video Codec

    Format profile                           : [email protected]

    Format settings, CABAC                   : Yes

    Format settings, ReFrames                : 2 frames

    Codec ID                                 : V_MPEG4/ISO/AVC

    Duration                                 : 1h 37mn

    Bit rate                                 : 1 900 Kbps

    Width                                    : 1 280 pixels

    Height                                   : 720 pixels

    Display aspect ratio                     : 16:9

    Frame rate mode                          : Variable

    Frame rate                               : 25.000 fps

    Color space                              : YUV

    Chroma subsampling                       : 4:2:0

    Bit depth                                : 8 bits

    Scan type                                : Progressive

    Bits/(Pixel*Frame)                       : 0.082

    Stream size                              : 1.26 GiB (81%)

    Writing library                          : x264 core 130 r2273

    Encoding settings                        : cabac=1 / ref=2 / deblock=1:0:0 / analyse=0x1:0x131 / me=hex / subme=7 / psy=1 / psyrd=1.00:0.00 / mixedref=0 / merange=16 / chromame=1 / trellis=1 / 8x8dct=0 / cqm=0 / deadzone=21,11 / fastpskip=1 / chromaqpoffset=-2 / threads=6 / lookaheadthreads=1 / slicedthreads=0 / nr=0 / decimate=1 / interlaced=0 / bluraycompat=0 / constrainedintra=0 / bframes=3 / bpyramid=0 / badapt=1 / bbias=0 / direct=3 / weightb=1 / opengop=0 / weightp=2 / keyint=250 / keyintmin=25 / scenecut=40 / intrarefresh=0 / rclookahead=40 / rc=abr / mbtree=1 / bitrate=1900 / ratetol=1.0 / qcomp=0.60 / qpmin=10 / qpmax=69 / qpstep=4 / vbvmaxrate=24000 / vbvbufsize=24000 / nalhrd=none / ipratio=1.40 / aq=1:1.00

    Language                                 : Italian

    Default                                  : Yes

    Forced                                   : No

    DURATION                                 : 01:37:05.520000000

    NUMBEROFFRAMES                         : 291228

    NUMBEROFBYTES                          : 7874391277

    STATISTICSWRITING_APP                  : mkvmerge v9.5.0 ('Quiet Fire') 64bit

    STATISTICSWRITINGDATEUTC             : 2019-04-03 14:42:00

    STATISTICSTAGS                         : BPS DURATION NUMBEROFFRAMES NUMBEROFBYTES

    Audio

    ID                                       : 2

    Format                                   : AC-3

    Format/Info                              : Audio Coding 3

    Mode extension                           : CM (complete main)

    Codec ID                                 : A_AC3

    Duration                                 : 1h 37mn

    Bit rate mode                            : Constant

    Bit rate                                 : 384 Kbps

    Channel(s)                               : 6 channels

    Channel positions                        : Front: L C R, Side: L R, LFE

    Sampling rate                            : 48.0 KHz

    Bit depth                                : 16 bits

    Compression mode                         : Lossy

    Delay relative to video                  : 1mn 5s

    Stream size                              : 267 MiB (17%)

    Title                                    : AC3 ITA

    Language                                 : Italian

    Default                                  : Yes

    Forced                                   : No

    DURATION                                 : 01:37:05.536000000

    NUMBEROFFRAMES                         : 182048

    NUMBEROFBYTES                          : 279624192

    STATISTICSWRITING_APP                  : mkvmerge v9.5.0 ('Quiet Fire') 64bit

    STATISTICSWRITINGDATEUTC             : 2019-04-03 14:42:00

    STATISTICSTAGS                         : BPS DURATION NUMBEROFFRAMES NUMBEROFBYTES


    More at ibit.to
    And ibit.uno
    And ibit.ws

    Reviews

    Comments

    Files

    Free solo sfida estrema (2018).720p.h264.ita-MIRCrew.mkv 1.6 GB

    Stream

    Downloading Seeding Free solo sfida estrema (2018).720p.h264.ita-MIRCrew.mkv from to 0 peers.
    of
    0 b/s / ↗0 b/s