• 3
  • 11
Sponsored Downloadondemand_video
  • Free Solo 2018 1080p BluRay BDrip DTS-HD.MA 5.1 D0ct0rLew[SEV].mkv
  • 7.1 GB
  • d0ct0rlew
  • Free Solo 2018 1080p BluRay BDrip DTS D0ct0rLew SEV mkv
  • English
  • HEVC/x265
80%

Free Solo (2018)

  • Documentary
  • Follow Alex Honnold as he attempts to become the first person to ever free solo climb Yosemite's 3,000 foot high El Capitan wall. With no ropes or safety gear, this would arguably be the greatest feat in rock climbing history.

    expand_more
    English

    Description

    imageimage

    imageimage

    Screenshots

    Source

    imageimageimageimageimage

    Encode

    imageimageimageimageimage

    Media Information

    Unique ID                                : 201908046105169112672944181610575351176 (0x97E6134059D2BD81A871734EDB4CCD88)

    Complete name                            : Free Solo 2018 1080p BluRay BDrip DTS-HD.MA 5.1 D0ct0rLew[SEV].mkv

    Format                                   : Matroska

    Format version                           : Version 4

    File size                                : 7.10 GiB

    Duration                                 : 1 h 40 min

    Overall bit rate mode                    : Variable

    Overall bit rate                         : 10.2 Mb/s

    Encoded date                             : UTC 2019-06-27 00:20:25

    Writing application                      : mkvmerge v29.0.0 ('Like It Or Not') 64-bit

    Writing library                          : libebml v1.3.6 + libmatroska v1.4.9

    Video

    ID                                       : 2

    Format                                   : HEVC

    Format/Info                              : High Efficiency Video Coding

    Format profile                           : Main [email protected]@Main

    Codec ID                                 : V_MPEGH/ISO/HEVC

    Duration                                 : 1 h 40 min

    Bit rate                                 : 6 777 kb/s

    Width                                    : 1 920 pixels

    Height                                   : 1 080 pixels

    Display aspect ratio                     : 16:9

    Frame rate mode                          : Constant

    Frame rate                               : 23.976 (24000/1001) FPS

    Color space                              : YUV

    Chroma subsampling                       : 4:2:0

    Bit depth                                : 10 bits

    Bits/(Pixel*Frame)                       : 0.136

    Stream size                              : 4.74 GiB (67%)

    Writing library                          : x265 3.0_Au+32-a46ded2c1411:[Windows][MSVC 1921][64 bit] 10bit

    Encoding settings                        : cpuid=1111039 / frame-threads=3 / numa-pools=8 / wpp / no-pmode / no-pme / no-psnr / no-ssim / log-level=2 / input-csp=1 / input-res=1920x1080 / interlace=0 / total-frames=143926 / level-idc=0 / high-tier=1 / uhd-bd=0 / ref=5 / no-allow-non-conformance / no-repeat-headers / annexb / no-aud / no-hrd / info / hash=0 / no-temporal-layers / open-gop / min-keyint=23 / keyint=250 / gop-lookahead=0 / bframes=8 / b-adapt=2 / b-pyramid / bframe-bias=0 / rc-lookahead=90 / lookahead-slices=0 / scenecut=40 / radl=0 / no-splice / no-intra-refresh / ctu=64 / min-cu-size=8 / no-rect / no-amp / max-tu-size=32 / tu-inter-depth=3 / tu-intra-depth=3 / limit-tu=4 / rdoq-level=2 / dynamic-rd=0.00 / no-ssim-rd / signhide / no-tskip / nr-intra=0 / nr-inter=0 / no-constrained-intra / strong-intra-smoothing / max-merge=4 / limit-refs=1 / limit-modes / me=3 / subme=5 / merange=92 / temporal-mvp / weightp / weightb / no-analyze-src-pics / deblock=0:0 / sao / no-sao-non-deblock / rd=6 / early-skip / rskip / no-fast-intra / no-tskip-fast / no-cu-lossless / b-intra / no-splitrd-skip / rdpenalty=0 / psy-rd=1.30 / psy-rdoq=1.00 / no-rd-refine / no-lossless / cbqpoffs=0 / crqpoffs=0 / rc=crf / crf=18.0 / qcomp=0.60 / qpstep=4 / stats-write=0 / stats-read=0 / ipratio=1.40 / pbratio=1.30 / aq-mode=2 / aq-strength=1.00 / cutree / zone-count=0 / no-strict-cbr / qg-size=32 / no-rc-grain / qpmax=69 / qpmin=0 / no-const-vbv / sar=0 / overscan=0 / videoformat=5 / range=0 / colorprim=2 / transfer=2 / colormatrix=2 / chromaloc=0 / display-window=0cll=0,0 / min-luma=0 / max-luma=1023 / log2-max-poc-lsb=8 / vui-timing-info / vui-hrd-info / slices=1 / no-opt-qp-pps / no-opt-ref-list-length-pps / no-multi-pass-opt-rps / scenecut-bias=0.05 / no-opt-cu-delta-qp / no-aq-motion / no-hdr / no-hdr-opt / no-dhdr10-opt / no-idr-recovery-sei / analysis-reuse-level=5 / scale-factor=0 / refine-intra=0 / refine-inter=0 / refine-mv=0 / refine-ctu-distortion=0 / no-limit-sao / ctu-info=0 / no-lowpass-dct / refine-analysis-type=0 / copy-pic=1 / max-ausize-factor=1.0 / no-dynamic-refine / no-single-sei / no-hevc-aq / no-svt / no-field / qp-adaptation-range=1.00

    Default                                  : Yes

    Forced                                   : No

    Audio

    ID                                       : 3

    Format                                   : DTS XLL

    Format/Info                              : Digital Theater Systems

    Commercial name                          : DTS-HD Master Audio

    Codec ID                                 : A_DTS

    Duration                                 : 1 h 40 min

    Bit rate mode                            : Variable

    Bit rate                                 : 3 384 kb/s

    Channel(s)                               : 6 channels

    Channel layout                           : C L R Ls Rs LFE

    Sampling rate                            : 48.0 kHz

    Frame rate                               : 93.750 FPS (512 SPF)

    Bit depth                                : 24 bits

    Compression mode                         : Lossless

    Stream size                              : 2.36 GiB (33%)

    Title                                    : Free.Solo.2018.1080p.BluRay.REMUX.AVC.DTS-HD.MA.5.1-FGT

    Language                                 : English

    Default                                  : Yes

    Forced                                   : No

    Text

    ID                                       : 1

    Format                                   : UTF-8

    Codec ID                                 : S_TEXT/UTF8

    Codec ID/Info                            : UTF-8 Plain Text

    Duration                                 : 1 h 39 min

    Bit rate                                 : 87 b/s

    Count of elements                        : 1321

    Stream size                              : 64.0 KiB (0%)

    Language                                 : English

    Default                                  : Yes

    Forced                                   : No

    Menu

    00:00:00.000                             : en:Chapter 01

    00:07:02.046                             : en:Chapter 02

    00:16:54.221                             : en:Chapter 03

    00:25:50.048                             : en:Chapter 04

    00:33:29.132                             : en:Chapter 05

    00:41:39.205                             : en:Chapter 06

    00:49:36.390                             : en:Chapter 07

    00:58:00.059                             : en:Chapter 08

    01:04:33.911                             : en:Chapter 09

    01:14:51.904                             : en:Chapter 10

    01:22:17.098                             : en:Chapter 11

    01:31:50.630                             : en:Chapter 12

    Source Media Information

    Unique ID                                : 10683889779802799190909782227119329736 (0x809A46F685A4FB7C011AE94320151C8)

    Complete name                            : Free.Solo.2018.1080p.BluRay.REMUX.AVC.DTS-HD.MA.5.1-FGT.mkv

    Format                                   : Matroska

    Format version                           : Version 4

    File size                                : 19.0 GiB

    Duration                                 : 1 h 40 min

    Overall bit rate mode                    : Variable

    Overall bit rate                         : 27.2 Mb/s

    Movie name                               : Free.Solo.2018.1080p.BluRay.REMUX.AVC.DTS-HD.MA.5.1-FGT

    Encoded date                             : UTC 2019-03-15 16:16:00

    Writing application                      : mkvmerge v31.0.0 ('Dolores In A Shoestand') 64-bit

    Writing library                          : libebml v1.3.6 + libmatroska v1.4.9

    Cover                                    : Yes

    Attachments                              : smallcover.jpg / smallcoverland.jpg / cover.jpg / coverland.jpg

    Video

    ID                                       : 1

    Format                                   : AVC

    Format/Info                              : Advanced Video Codec

    Format profile                           : [email protected]

    Format settings                          : CABAC / 4 Ref Frames

    Format settings, CABAC                   : Yes

    Format settings, RefFrames               : 4 frames

    Format settings, GOP                     : M=3, N=24

    Codec ID                                 : V_MPEG4/ISO/AVC

    Duration                                 : 1 h 40 min

    Bit rate mode                            : Variable

    Bit rate                                 : 20.0 Mb/s

    Maximum bit rate                         : 35.0 Mb/s

    Width                                    : 1 920 pixels

    Height                                   : 1 080 pixels

    Display aspect ratio                     : 16:9

    Frame rate mode                          : Constant

    Frame rate                               : 23.976 (24000/1001) FPS

    Standard                                 : NTSC

    Color space                              : YUV

    Chroma subsampling                       : 4:2:0

    Bit depth                                : 8 bits

    Scan type                                : Progressive

    Bits/(Pixel*Frame)                       : 0.401

    Stream size                              : 13.9 GiB (73%)

    Title                                    : Free.Solo.2018.1080p.BluRay.REMUX.AVC.DTS-HD.MA.5.1-FGT

    Language                                 : English

    Default                                  : No

    Forced                                   : No

    Color range                              : Limited

    Color primaries                          : BT.709

    Transfer characteristics                 : BT.709

    Matrix coefficients                      : BT.709

    Audio #1

    ID                                       : 2

    Format                                   : DTS XLL

    Format/Info                              : Digital Theater Systems

    Commercial name                          : DTS-HD Master Audio

    Codec ID                                 : A_DTS

    Duration                                 : 1 h 40 min

    Bit rate mode                            : Variable

    Bit rate                                 : 3 384 kb/s

    Channel(s)                               : 6 channels

    Channel layout                           : C L R Ls Rs LFE

    Sampling rate                            : 48.0 kHz

    Frame rate                               : 93.750 FPS (512 SPF)

    Bit depth                                : 24 bits

    Compression mode                         : Lossless

    Stream size                              : 2.36 GiB (12%)

    Title                                    : Free.Solo.2018.1080p.BluRay.REMUX.AVC.DTS-HD.MA.5.1-FGT

    Language                                 : English

    Default                                  : Yes

    Forced                                   : No

    Audio #2

    ID                                       : 3

    Format                                   : DTS

    Format/Info                              : Digital Theater Systems

    Codec ID                                 : A_DTS

    Duration                                 : 1 h 40 min

    Bit rate mode                            : Constant

    Bit rate                                 : 1 509 kb/s

    Channel(s)                               : 6 channels

    Channel layout                           : C L R Ls Rs LFE

    Sampling rate                            : 48.0 kHz

    Frame rate                               : 93.750 FPS (512 SPF)

    Bit depth                                : 24 bits

    Compression mode                         : Lossy

    Stream size                              : 1.05 GiB (6%)

    Title                                    : Free.Solo.2018.1080p.BluRay.REMUX.AVC.DTS-HD.MA.5.1-FGT

    Language                                 : English

    Default                                  : No

    Forced                                   : No

    Audio #3

    ID                                       : 4

    Format                                   : PCM

    Format settings                          : Little / Signed

    Codec ID                                 : A_PCM/INT/LIT

    Duration                                 : 1 h 40 min

    Bit rate mode                            : Constant

    Bit rate                                 : 2 304 kb/s

    Channel(s)                               : 2 channels

    Sampling rate                            : 48.0 kHz

    Frame rate                               : 30.000 FPS (1600 SPF)

    Bit depth                                : 24 bits

    Stream size                              : 1.61 GiB (8%)

    Title                                    : Free.Solo.2018.1080p.BluRay.REMUX.AVC.DTS-HD.MA.5.1-FGT

    Language                                 : English

    Default                                  : No

    Forced                                   : No

    Text

    ID                                       : 5

    Format                                   : UTF-8

    Codec ID                                 : S_TEXT/UTF8

    Codec ID/Info                            : UTF-8 Plain Text

    Duration                                 : 1 h 35 min

    Bit rate                                 : 86 b/s

    Count of elements                        : 1320

    Stream size                              : 60.1 KiB (0%)

    Title                                    : English-SRT

    Language                                 : English

    Default                                  : Yes

    Forced                                   : No

    Menu

    00:00:00.000                             : en:Chapter 01

    00:07:02.046                             : en:Chapter 02

    00:16:54.221                             : en:Chapter 03

    00:25:50.048                             : en:Chapter 04

    00:33:29.132                             : en:Chapter 05

    00:41:39.205                             : en:Chapter 06

    00:49:36.390                             : en:Chapter 07

    00:58:00.059                             : en:Chapter 08

    01:04:33.911                             : en:Chapter 09

    01:14:51.904                             : en:Chapter 10

    01:22:17.098                             : en:Chapter 11

    01:31:50.630                             : en:Chapter 12

    We have no issue with individuals posting or re-uploading our torrents on a platform we aren't on. However, if this is something you'd like to do, please do so in a 'as-is' format. We ask that you do not create a new torrent, include all descriptions you see above including the SEV logo, tags, notes and screenshots. If you'd like to become a permanent poster on a website we don't post to, feel free to get in contact with a Sublime Encoded Video  member.

    **We are recruiting/training new members for SEV & seedbox providers as well as people to help out with subtitles.

    As you already know, we deliver quality, so you know the standard.

    If you're interested, feel free to contact any of the team members.**


    More at ibit.to
    And ibit.uno
    And ibit.ws

    Reviews

    Comments

    Files

    Free Solo 2018 1080p BluRay BDrip DTS-HD.MA 5.1 D0ct0rLew[SEV].mkv 7.1 GB

    Stream

    Downloading Seeding Free Solo 2018 1080p BluRay BDrip DTS-HD.MA 5.1 D0ct0rLew[SEV].mkv from to 0 peers.
    of
    0 b/s / ↗0 b/s