• 0
  • 0
Sponsored Downloadondemand_video
  • Formula.1.2017x12.Belgium.Race.SkyF1HD.SD
  • 2.2 GB
  • smcgill1969
  • Formula 2017x12 Belgium Race SkyF1HD
  • English
  • Sports

Description

The 2017 Belgian Grand Prix, held at Circuit de Spa-Francorchamps.

Video
ID : 1
Format : AVC
Format/Info : Advanced Video Codec
Format profile : [email protected]
Format settings, CABAC : Yes
Format settings, RefFrames : 4 frames
Codec ID : avc1
Codec ID/Info : Advanced Video Coding
Duration : 1 h 25 min
Bit rate : 817 kb/s
Width : 640 pixels
Height : 360 pixels
Display aspect ratio : 16:9
Frame rate mode : Constant
Frame rate : 25.000 FPS
Color space : YUV
Chroma subsampling : 4:2:0
Bit depth : 8 bits
Scan type : Progressive
Bits/(Pixel*Frame) : 0.142
Stream size : 497 MiB (86%)
Writing library : x264 core 148 r2708 86b7198
Encoding settings : cabac=1 / ref=1 / deblock=1:0:0 / analyse=0x1:0x111 / me=hex / subme=2 / psy=1 / psyrd=1.00:0.00 / mixedref=0 / merange=16 / chromame=1 / trellis=0 / 8x8dct=0 / cqm=0 / deadzone=21,11 / fastpskip=1 / chromaqpoffset=0 / threads=11 / lookaheadthreads=2 / slicedthreads=0 / nr=0 / decimate=1 / interlaced=0 / bluraycompat=0 / constrainedintra=0 / bframes=3 / bpyramid=2 / badapt=1 / bbias=0 / direct=1 / weightb=1 / opengop=0 / weightp=1 / keyint=500 / keyintmin=50 / scenecut=40 / intrarefresh=0 / rclookahead=10 / rc=crf / mbtree=1 / crf=22.0 / qcomp=0.60 / qpmin=0 / qpmax=69 / qpstep=4 / vbvmaxrate=14000 / vbvbufsize=14000 / crfmax=0.0 / nalhrd=none / filler=0 / ip_ratio=1.40 / aq=1:1.00
Encoded date : UTC 2017-08-27 11:59:09
Tagged date : UTC 2017-08-27 11:59:09
Color range : Limited
Color primaries : BT.709
Transfer characteristics : BT.709
Matrix coefficients : BT.709

Audio
ID : 2
Format : AAC
Format/Info : Advanced Audio Codec
Format profile : LC
Codec ID : 40
Duration : 1 h 25 min
Bit rate mode : Variable
Bit rate : 128 kb/s
Channel(s) : 2 channels
Channel positions : Front: L R
Sampling rate : 48.0 kHz
Frame rate : 46.875 FPS (1024 SPF)
Compression mode : Lossy
Stream size : 77.9 MiB (13%)
Title : Stereo / Stereo
Language : English
Default : Yes
Alternate group : 1
Encoded date : UTC 2017-08-27 11:59:09
Tagged date : UTC 2017-08-27 11:59:09


More at ibit.to
And ibit.uno
And ibit.ws

Comments

2 years ago

Great stuff - thanks very much! Too old to rock 'n roll, but too young to die! ;)Remember, today is the tomorrow you talked about yesterday!

2 years ago

thanks again

2 years ago

Thank you for the SD!

2 years ago

Thank you

2 years ago

Thank you as always

2 years ago

Thank-you once again for the wonderful work. Wish you a fantastic week.

2 years ago

Much appreciated, as always

Files

01.Pre-Race.Buildup.SD.mp4 607 MB
02.Race.Session.SD.mp4 975 MB
03.Post-Race.Analysis.SD.mp4 593 MB

Stream

Downloading Seeding Formula.1.2017x12.Belgium.Race.SkyF1HD.SD from to 0 peers.
of
0 b/s / ↗0 b/s