• -
  • -
  • done
Download
  • Fontaines DC - Glastonbury 2022 [2022, Rock, Post-Punk, WEB-DLRip, 720p]
  • 2.1 GB
  • pedrokronbauer
  • Fontaines Glastonbury 2022 Rock Post Punk WEB DLRip 720p
  • Зарубежный рок (HD Video)

Description

Fontaines DC - Glastonbury 2022 [2022, Rock, Post-Punk, WEB-DLRip, 720p]

image

Жанр : Rock, Post-punk, Indie

Продолжительность : 00:57:07

Год выпуска : 2022

Описание : Fontaines D.C. - Live at Glastonbury Festival 2022

Треклист :
1. In ár gCroíthe go deo
2. A Lucid Dream
3. Sha Sha Sha
4. Roman Holiday
5. Televised Mind
6. Nabokov
7. Too Real
8. The Couple Across the Way
9. Big Shot
10. I Love You
11. A Hero's Death
12. Boys in the Better Land
13. Jackie Down the Line

Thank you very much, shantiq, for such effort in rip and share the file.

Качество : Web-DLRip

Разрешение видео/развертка : 720p

Контейнер : MP4

Видео кодек : H.264

Аудио кодек : AAC

Видео : MPEG4 Video (H264) 1280x720 50fps 5070kbps

Аудио : AAC 48000Hz stereo 128kbps

Отчёт MediaInfo / BDInfo

`
General
Format : MPEG-4
Format profile : Base Media
Codec ID : isom
File size : 2.08 GiB
Duration : 57mn 7s
Overall bit rate mode : Variable
Overall bit rate : 5 209 Kbps
Writing application : Lavf59.6.100

Video
ID : 2
Format : AVC
Format/Info : Advanced Video Codec
Format profile : [email protected]
Format settings, CABAC : Yes
Format settings, ReFrames : 4 frames
Codec ID : avc1
Codec ID/Info : Advanced Video Coding
Duration : 57mn 7s
Bit rate mode : Variable
Bit rate : 5 071 Kbps
Maximum bit rate : 7 605 Kbps
Width : 1 280 pixels
Height : 720 pixels
Display aspect ratio : 16:9
Frame rate mode : Variable
Frame rate : 50.000 fps
Minimum frame rate : 25.000 fps
Maximum frame rate : 90 000.000 fps
Color space : YUV
Chroma subsampling : 4:2:0
Bit depth : 8 bits
Scan type : Progressive
Bits/(Pixel*Frame) : 0.110
Stream size : 2.02 GiB (97%)
Color primaries : BT.709
Transfer characteristics : BT.709
Matrix coefficients : BT.709
Color range : Limited

Audio
ID : 1
Format : AAC
Format/Info : Advanced Audio Codec
Format profile : LC
Codec ID : 40
Duration : 57mn 7s
Bit rate mode : Variable
Bit rate : 128 Kbps
Maximum bit rate : 131 Kbps / 131 Kbps
Channel(s) : 2 channels
Channel positions : Front: L R
Sampling rate : 48.0 KHz
Compression mode : Lossy
Stream size : 52.3 MiB (2%)
Language : English
`

Скриншоты

image

image

image

image

image

image

image

image

image


More at ibit.to
And ibit.uno
And ibit.am
And ibit.ws

Comments

1 month ago

obrigado!

Files

Stream

Downloading Seeding Fontaines DC - Glastonbury 2022 [2022, Rock, Post-Punk, WEB-DLRip, 720p] from to 0 peers.
of
0 b/s / ↗0 b/s