• 32
  • 5
  • done
Download
  • Fleetwood Mac - The Pious Bird Of Good Omen (1969) LP 24-96 FLAC
  • 724 MB
  • vtwin88cube
  • Fleetwood Mac Pious Bird Good Omen 1969 FLAC
  • Unknown/NA
  • FLAC

Description

Fleetwood Mac
The Pious Bird Of Good Omen (1969)
FLAC LOSSLESS 24bit-96kHz
UK PBTHAL Vinyl Rip


allmusic.com...

With songs taken from Fleetwood Mac and Mr. Wonderful, Pious Bird of Good Omen serves as a worthy 12-track compilation of the band's early Peter Green days. Climbing to number 18 in the U.K., the album managed to catapult Fleetwood Mac's version of Little Willie John's "Need Your Love So Bad" into the English charts for the third time, resting at number 42. The album itself was released by Blue Horizon after the group's contract with them had expired, making it one of the best routes in which to explore their mingling of Chicago and British blues. "Albatross," "Black Magic Woman," and "I Believe My Time Ain't Long" are timeless Fleetwood Mac standards, representing some of the band's best pre-Rumours work. Anyone who isn't familiar with Fleetwood Mac's origins should use Pious Bird of Good Omen as a starting point in investigating the first wave of the band, which will almost certainly lead to further interests into albums such as English Rose, Then Play On, and Kiln House, and then into later albums like Bare Trees and Penguin, which reveal subtle yet effective changes in the band's blues sound. But even aside from its purpose as a collection, Pious Bird of Good Omen makes for a terrific laid-back stroll through some of the best British blues music ever made.


foobar2000 1.4.3 / Dynamic Range Meter 1.1.1
log date: 2021-01-10 01:36:29

--------------------------------------------------------------------------------
Analyzed: Fleetwood Mac / The Pious Bird Of Good Omen
--------------------------------------------------------------------------------

DR Peak RMS Duration Track
--------------------------------------------------------------------------------
DR13 -1.26 dB -19.52 dB 3:57 01-Need Your Love So Bad
DR10 -5.46 dB -17.19 dB 2:42 02-Comin' Home
DR11 -4.46 dB -18.76 dB 2:43 03-Rambling Pony
DR12 -6.46 dB -21.05 dB 2:41 04-The Big Boat
DR12 -1.94 dB -17.74 dB 2:57 05-I Believe My Time Ain't Long
DR12 -0.70 dB -17.05 dB 3:16 06-The Sun Is Shining
DR11 -3.57 dB -17.13 dB 3:13 07-Albatross
DR13 -2.49 dB -19.21 dB 2:56 08-Black Magic Woman
DR13 -6.37 dB -23.70 dB 5:37 09-Just The Blues
DR13 -1.55 dB -17.83 dB 1:38 10-Jigsaw Puzzle Blues
DR12 -7.31 dB -20.50 dB 2:54 11-Looking For Somebody
DR10 -6.47 dB -18.55 dB 2:25 12-Stop Messin' Round

Number of tracks: 12
Official DR value: DR12

Samplerate: 96000 Hz
Channels: 2
Bits per sample: 24
Bitrate: 2776 kbps
Codec: FLAC





Support the artists...
buy it if you like it!

Thanks for Seeding!
Cheers! ;)


More at ibit.to
And ibit.uno
And ibit.am
And ibit.ws

Comments

Files

Fleetwood Mac - The Pious Bird Of Good Omen (1969) LP 24-96 FLAC -
00.-Fleetwood Mac - The Pious Bird Of Good Omen.m3u 332 B
01.-Need Your Love So Bad.flac 78 MB
02.-Comin' Home.flac 53 MB
03.-Rambling Pony.flac 53 MB
04.-The Big Boat.flac 53 MB
05.-I Believe My Time Ain't Long.flac 60 MB
06.-The Sun Is Shining.flac 66 MB
07.-Albatross.flac 61 MB
08.-Black Magic Woman.flac 59 MB
09.-Just The Blues.flac 104 MB
10.-Jigsaw Puzzle Blues.flac 32 MB
11.-Looking For Somebody.flac 56 MB
12.-Stop Messin' Round.flac 48 MB
DR12.txt 1.5 kB
folder.jpg 248 kB
lineage.txt 347 B

Stream

Downloading Seeding Fleetwood Mac - The Pious Bird Of Good Omen (1969) LP 24-96 FLAC from to 0 peers.
of
0 b/s / ↗0 b/s