• 114
  • 10
  • 1,319
  • done
Sponsored Downloadondemand_video
  • Fighting with My Family 2019 NEW 720p HD-TS x264-iM@X
  • 982 MB
  • iMaX
  • Fighting Family 2019 NEW 720p x264
  • English
  • CAM/TS
66%

Fighting with My Family (2019)

  • Comedy Drama
  • Born into a tight-knit wrestling family, Paige and her brother Zak are ecstatic when they get the once-in-a-lifetime opportunity to try out for the WWE. But when only Paige earns a spot in the competitive training program, she must leave her loved ones behind and face this new cutthroat world alone. Paige's journey pushes her to dig deep and ultimately prove to the world that what makes her different is the very thing that can make her a star.

    expand_more
    English
  • $11,000,000
  • Description

    Language: English

    Genre: Biography | Comedy | Drama | Sport

    A former wrestler and his family make a living performing at small venues around the country while his kids dream of joining World Wrestling Entertainment.

    image

    Format : Matroska

    Format version : Version 2

    File size : 983 MiB

    Duration : 1 h 45 min

    Overall bit rate : 1 297 kb/s

    Encoded date : UTC 2019-03-03 17:08:08

    Writing application : mkvmerge v26.0.0 ('In The Game') 64-bit

    Writing library : libebml v1.3.6 + libmatroska v1.4.9

    Video

    ID : 1

    Format : AVC

    Format/Info : Advanced Video Codec

    Format profile : [email protected]
    Format settings : CABAC / 4 Ref Frames

    Format settings, CABAC : Yes

    Format settings, RefFrames : 4 frames

    Codec ID : V_MPEG4/ISO/AVC

    Duration : 1 h 45 min

    Bit rate : 1 072 kb/s

    Width : 1 280 pixels

    Height : 536 pixels

    Display aspect ratio : 2.40:1

    Frame rate mode : Constant

    Frame rate : 29.970 (29970/1000) FPS

    Original frame rate : 29.970 (30000/1001) FPS

    Color space : YUV

    Chroma subsampling : 4:2:0

    Bit depth : 8 bits

    Scan type : Progressive

    Bits/(Pixel*Frame) : 0.052

    Stream size : 811 MiB (83%)

    Title : www.SANET.ST

    Writing library : x264 core 155 r2901 7d0ff22

    Encoding settings : cabac=1 / ref=3 / deblock=1:0:0 / analyse=0x3:0x113 / me=hex / subme=7 / psy=1 / psyrd=1.00:0.00 / mixedref=1 / merange=16 / chromame=1 / trellis=1 / 8x8dct=1 / cqm=0 / deadzone=21,11 / fastpskip=1 / chromaqpoffset=-2 / threads=12 / lookaheadthreads=2 / slicedthreads=0 / nr=0 / decimate=1 / interlaced=0 / bluraycompat=0 / constrainedintra=0 / bframes=3 / bpyramid=2 / badapt=1 / bbias=0 / direct=1 / weightb=1 / opengop=0 / weightp=2 / keyint=300 / keyintmin=29 / scenecut=40 / intrarefresh=0 / rclookahead=40 / rc=2pass / mbtree=1 / bitrate=1072 / ratetol=1.0 / qcomp=0.60 / qpmin=0 / qpmax=69 / qpstep=4 / cplxblur=20.0 / qblur=0.5 / ip_ratio=1.40 / aq=1:1.00

    Default : Yes

    Forced : No

    Audio

    ID : 2

    Format : AC-3

    Format/Info : Audio Coding 3

    Codec ID : A_AC3

    Duration : 1 h 45 min

    Bit rate mode : Constant

    Bit rate : 224 kb/s

    Channel(s) : 2 channels

    Channel positions : Front: L R

    Sampling rate : 48.0 kHz

    Frame rate : 31.250 FPS (1536 SPF)

    Bit depth : 16 bits

    Compression mode : Lossy

    Stream size : 170 MiB (17%)

    Title : www.SANET.ST

    Language : English

    Service kind : Complete Main

    Default : Yes

    Forced : No

    Text

    ID : 3

    Format : ASS

    Codec ID : S_TEXT/ASS

    Codec ID/Info : Advanced Sub Station Alpha

    Duration : 5 min 5 s

    Bit rate : 2 b/s

    Count of elements : 1

    Compression mode : Lossless

    Stream size : 89.0 Bytes (0%)

    Title : www.SANET.ST

    Language : English

    Default : Yes

    Forced : Yes


    More at ibit.to
    And ibit.uno
    And ibit.ws

    Reviews

    Not really a Wrestling movie so much as it is a character study that may or may not be remotely accurate. I don't feel like I walked away from _Fighting with My Family_ with a greater appreciation for the sport, but I did feel like I understood how the core cast felt about it. _Final rating:★★★ - I liked it. Would personally recommend you give it a _

    Comments

    Files

    Downloaded from www.SANET.ST.txt 223 B
    Fighting with My Family 2019 NEW 720p HD-TS [email protected] 983 MB
    Fighting with My Family 2019 NEW 720p HD-TS [email protected]/Downloaded from www.SANET.ST.txt 200 B
    Fighting with My Family 2019 NEW 720p HD-TS [email protected]/Fighting with My Family 2019 NEW 720p HD-TS [email protected] 982 MB
    Fighting with My Family 2019 NEW 720p HD-TS/Fighting with My Family 2019 NEW 720p HDTS -
    Fighting with My Family 2019 NEW 720p HD-TS/Downloaded from www.SANET.ST.txt 223 B
    Fighting with My Family 2019 NEW 720p HD-TS/ 982 MB

    Stream

    Downloading Seeding Fighting with My Family 2019 NEW 720p HD-TS x264-iM@X from to 0 peers.
    of
    0 b/s / ↗0 b/s