• 0
  • 0
  • 79
Anonymous Downloadondemand_video
  • Fight to the Finish 2016 - 720p - DVDRip - Zi$t♥{FRG}
  • 710 MB
  • Zist313
  • Fight Finish 2016 720p DVDRip
  • English
  • DVD
Warning! Use a VPN When Downloading Torrents!
Your IP Address is ,
Your Internet Provider can see when you download torrents! Hide your IP ADDRESS with a VPN
We strongly recommend Trust.Zone VPN to hide your torrenting. It's FREE!
DOWNLOAD VPN
52%

Fight to the Finish (2016)

  • Romance Action
  • A young amateur fighter makes an enemy with a hardened thug when he gets in-between his next-door neighbor and her abusive ex- boyfriend. As his personal life becomes threatened, he realizes he must finish the fight that he started, but this time they'll settle it in the ring for the championship.

    expand_more
    English

    Description

    http://www.imdb.com/title/tt3152288/](http://www.imdb.com/title/tt3152288/)

    image
    image

    General

    Complete name : Fight to the Finish 2016

    Format : MPEG-4

    Format profile : Base Media

    Codec ID : isom

    File size : 710 MiB

    Duration : 1h 34mn

    Overall bit rate : 1 048 Kbps

    Movie name : Fight to the Finish 2016

    Writing application : Lavf56.15.104

    Video

    ID : 1

    Format : AVC

    Format/Info : Advanced Video Codec

    Format profile : [[email protected]
    Format settings, CABAC : Yes

    Format settings, ReFrames : 3 frames

    Codec ID : avc1

    Codec ID/Info : Advanced Video Coding

    Duration : 1h 34mn

    Bit rate : 900 Kbps

    Width : 1 280 pixels

    Height : 534 pixels

    Display aspect ratio : 2.40:1

    Original display aspect rat : 2.40:1

    Frame rate mode : Constant

    Frame rate : 23.976 fps

    Color space : YUV

    Chroma subsampling : 4:2:0

    Bit depth : 8 bits

    Scan type : Progressive

    Bits/(Pixel*Frame) : 0.055

    Stream size : 599 MiB (84%)

    Writing library : x264 core 135

    Language : English

    Audio

    ID : 2

    Format : AAC

    Format/Info : Advanced Audio Codec

    Format profile : LC

    Codec ID : 40

    Duration : 1h 34mn

    Bit rate mode : Constant

    Bit rate : 160 Kbps

    Channel(s) : 2 channels

    Channel(s)_Original : 6 channels

    Channel positions : Front: L C R, Side: L R, LFE

    Sampling rate : 48.0 KHz

    Compression mode : Lossy

    Stream size : 108 MiB (15%)

    Language : English

    image
    image
    image
    image
    image
    image
    image
    image


    More at ibit.to
    And ibit.uno
    And ibit.ws

    Reviews

    Comments

    Files

    Fight to the Finish 2016 - 720p - DVDRip - Zi$t♥{FRG}.mp4 744 MB

    Stream

    Downloading Seeding Fight to the Finish 2016 - 720p - DVDRip - Zi$t♥{FRG} from to 0 peers.
    of
    0 b/s / ↗0 b/s