• 0
  • 0
  • done
Sponsored Download
  • Fever Tree - 1993 - Fever Tree (1968) & Another Time Another Place (1968)
  • 418 MB
  • sket4er
  • Fever Tree 1993 1968 Time Place
  • Зарубежный Rock

Description

Fever Tree - Fever Tree & Another Time Another Place (2on1)

image

Жанр : Psychedelic Rock

Носитель : CD

Страна-производитель диска (релиза) : UK

Год издания : 1993

Издатель (лейбл) : See For Miles Records Ltd.

Номер по каталогу : SEECD 364

Страна исполнителя (группы) : USA

Аудиокодек : FLAC (*.flac)

Тип рипа : image+.cue

Битрейт аудио : lossless

Продолжительность : 01:09:44

Источник (релизер) : Sket4er

Наличие сканов в содержимом раздачи : да

Треклист :

Fever Tree (1968):

  1. Imitation Situation I (Toccata And Fugue)
  2. Where Do You Go?
  3. San Francisco Girls (Return Of The Native)
  4. Ninety-Nine And One Half
  5. Man Who Paints The Pictures
  6. Filligree & Shadow
  7. The Sun Also Rises
  8. Day Tripper / We Can Work It Out
  9. Nowadays Clancy Can't Even Sing
  10. Unlock My Door
  11. Come With Me (Rainsong)

Another Time Another Place (1968):

  1. Man Who Paints The Pictures - Part II
  2. What Time Did You Say It Is In Salt Lake City
  3. Don't Come Crying To Me Girl
  4. Fever
  5. Grand Candy Young Sweet
  6. Jokes Are For Sad People
  7. I've Never Seen Evergreen
  8. Peace Of Mind
  9. Death Is The Dancer

Лог создания рипа

`Exact Audio Copy V1.3 from 2. September 2016

EAC extraction logfile from 30. April 2019, 21:31

Fever Tree / Fever Tree + Another Time Another Place

Used drive : TSSTcorpCDDVDW SH-224DB Adapter: 1 ID: 0

Read mode : Secure
Utilize accurate stream : Yes
Defeat audio cache : Yes
Make use of C2 pointers : No

Read offset correction : 6
Overread into Lead-In and Lead-Out : No
Fill up missing offset samples with silence : Yes
Delete leading and trailing silent blocks : No
Null samples used in CRC calculations : Yes
Used interface : Native Win32 interface for Win NT & 2000

Used output format : User Defined Encoder
Selected bitrate : 1024 kBit/s
Quality : High
Add ID3 tag : No
Command line compressor : C:Program Files (x86)Exact Audio CopyFlacflac.exe
Additional command line options : -V -8 -T "Genre=%genre%" -T "Artist=%artist%" -T "Title=%src%" -T "Album=%albumsrc%" -T "Date=%year%" -T "Tracknumber=%tracknr%" -T "Comment=%comment%" %source%

TOC of the extracted CD

Track | Start | Length | Start sector | End sector


1 | 0:00.32 | 1:37.10 | 32 | 7316
2 | 1:37.42 | 2:28.68 | 7317 | 18484
3 | 4:06.35 | 3:39.17 | 18485 | 34926
4 | 7:45.52 | 2:47.15 | 34927 | 47466
5 | 10:32.67 | 2:35.10 | 47467 | 59101
6 | 13:08.02 | 3:57.63 | 59102 | 76939
7 | 17:05.65 | 2:46.35 | 76940 | 89424
8 | 19:52.25 | 3:33.25 | 89425 | 105424
9 | 23:25.50 | 3:05.65 | 105425 | 119364
10 | 26:31.40 | 3:49.20 | 119365 | 136559
11 | 30:20.60 | 3:49.52 | 136560 | 153786
12 | 34:10.37 | 6:51.63 | 153787 | 184674
13 | 41:02.25 | 2:47.07 | 184675 | 197206
14 | 43:49.32 | 2:31.60 | 197207 | 208591
15 | 46:21.17 | 3:42.33 | 208592 | 225274
16 | 50:03.50 | 1:56.47 | 225275 | 234021
17 | 52:00.22 | 7:13.48 | 234022 | 266544
18 | 59:13.70 | 3:24.12 | 266545 | 281856
19 | 62:38.07 | 3:13.05 | 281857 | 296336
20 | 65:51.12 | 3:53.53 | 296337 | 313864

Range status and errors

Selected range

Filename G:Sket4erFever Tree – Fever Tree + Another Time Another Place (1968) 1993Fever Tree - Fever Tree + Another Time Another Place.wav

Peak level 94.5 %
Extraction speed 2.3 X
Range quality 99.9 %
Test CRC 06315994
Copy CRC 06315994
Copy OK

No errors occurred

AccurateRip summary

Track 1 cannot be verified as accurate (confidence 7) [CEFDD383], AccurateRip returned CF536599
Track 2 cannot be verified as accurate (confidence 7) [D18ABC64], AccurateRip returned C5D30B95
Track 3 cannot be verified as accurate (confidence 7) [0B93784B], AccurateRip returned F6F8AA2E
Track 4 cannot be verified as accurate (confidence 7) [A5F4486E], AccurateRip returned F201D5CA
Track 5 cannot be verified as accurate (confidence 7) [3D8A22A9], AccurateRip returned 1196AD02
Track 6 cannot be verified as accurate (confidence 7) [379FF7FF], AccurateRip returned 01E8E7AE
Track 7 cannot be verified as accurate (confidence 7) [B30C5463], AccurateRip returned 6543B6FA
Track 8 cannot be verified as accurate (confidence 7) [9EAE3014], AccurateRip returned 41BC3D45
Track 9 cannot be verified as accurate (confidence 7) [C741EF3A], AccurateRip returned F6E0939C
Track 10 cannot be verified as accurate (confidence 7) [AC77DEAF], AccurateRip returned 2BFB3185
Track 11 cannot be verified as accurate (confidence 7) [62522BF8], AccurateRip returned 0B962F69
Track 12 cannot be verified as accurate (confidence 7) [29B89EAB], AccurateRip returned F2804ABB
Track 13 cannot be verified as accurate (confidence 7) [E63B6AF7], AccurateRip returned AF8FC0E9
Track 14 cannot be verified as accurate (confidence 7) [801FA193], AccurateRip returned D24862C8
Track 15 cannot be verified as accurate (confidence 7) [F2F87B44], AccurateRip returned E5BDD387
Track 16 cannot be verified as accurate (confidence 7) [0BF52CD2], AccurateRip returned 247B6BC7
Track 17 cannot be verified as accurate (confidence 7) [6C005F83], AccurateRip returned 3A4A1145
Track 18 cannot be verified as accurate (confidence 7) [61835DFC], AccurateRip returned 561D15B7
Track 19 cannot be verified as accurate (confidence 7) [B6874383], AccurateRip returned B2BA1F65
Track 20 cannot be verified as accurate (confidence 7) [4EFF79EC], AccurateRip returned 809CDB80

No tracks could be verified as accurate
You may have a different pressing from the one(s) in the database

End of status report

---- CUETools DB Plugin V2.1.6

[CTDB TOCID: ggRUrWxpAiAZJSzFMekKOA1kVk-] found
Submit result: ggR
UrWxpAiAZJSzFMekKOA1kVk- has been confirmed
Track | CTDB Status
1 | (12/12) Accurately ripped
2 | (11/12) Accurately ripped
3 | (12/12) Accurately ripped
4 | (12/12) Accurately ripped
5 | (11/12) Accurately ripped
6 | (12/12) Accurately ripped
7 | (12/12) Accurately ripped
8 | (12/12) Accurately ripped
9 | (12/12) Accurately ripped
10 | (12/12) Accurately ripped
11 | (12/12) Accurately ripped
12 | (12/12) Accurately ripped
13 | (12/12) Accurately ripped
14 | (12/12) Accurately ripped
15 | (12/12) Accurately ripped
16 | (12/12) Accurately ripped
17 | (12/12) Accurately ripped
18 | (12/12) Accurately ripped
19 | (12/12) Accurately ripped
20 | (12/12) Accurately ripped

==== Log checksum 7882E3B60A8E2E2A694987A37B7A82AB6B8625E2C436E3EBD8A43D43B76071E3 ==== `

Содержание индексной карты (.CUE)

REM GENRE "Psychedelic Rock" REM DATE 1968 REM DISCID 14105814 REM COMMENT "ExactAudioCopy v1.3" PERFORMER "Fever Tree" TITLE "Fever Tree + Another Time Another Place" REM COMPOSER "" FILE "Fever Tree - Fever Tree + Another Time Another Place.flac" WAVE TRACK 01 AUDIO TITLE "Imitation Situation I (Toccata And Fugue)" PERFORMER "Fever Tree" REM COMPOSER "" INDEX 00 00:00:00 INDEX 01 00:00:32 TRACK 02 AUDIO TITLE "Where Do You Go?" PERFORMER "Fever Tree" REM COMPOSER "" INDEX 01 01:37:42 TRACK 03 AUDIO TITLE "San Francisco Girls (Return Of The Native)" PERFORMER "Fever Tree" REM COMPOSER "" INDEX 01 04:06:35 TRACK 04 AUDIO TITLE "Ninety-Nine And One Half" PERFORMER "Fever Tree" REM COMPOSER "" INDEX 01 07:45:52 TRACK 05 AUDIO TITLE "Man Who Paints The Pictures" PERFORMER "Fever Tree" REM COMPOSER "" INDEX 01 10:32:67 TRACK 06 AUDIO TITLE "Filligree & Shadow" PERFORMER "Fever Tree" REM COMPOSER "" INDEX 01 13:08:02 TRACK 07 AUDIO TITLE "The Sun Also Rises" PERFORMER "Fever Tree" REM COMPOSER "" INDEX 01 17:05:65 TRACK 08 AUDIO TITLE "Day Tripper / We Can Work It Out" PERFORMER "Fever Tree" REM COMPOSER "" INDEX 01 19:52:25 TRACK 09 AUDIO TITLE "Nowadays Clancy Can't Even Sing" PERFORMER "Fever Tree" REM COMPOSER "" INDEX 01 23:25:50 TRACK 10 AUDIO TITLE "Unlock My Door" PERFORMER "Fever Tree" REM COMPOSER "" INDEX 01 26:31:40 TRACK 11 AUDIO TITLE "Come With Me (Rainsong)" PERFORMER "Fever Tree" REM COMPOSER "" INDEX 01 30:20:60 TRACK 12 AUDIO TITLE "Man Who Paints The Pictures - part II" PERFORMER "Fever Tree" REM COMPOSER "" INDEX 01 34:10:37 TRACK 13 AUDIO TITLE "What Time Did You Say It Is In Salt Lake City?" PERFORMER "Fever Tree" REM COMPOSER "" INDEX 01 41:02:25 TRACK 14 AUDIO TITLE "Don't Come Crying To Me Girl" PERFORMER "Fever Tree" REM COMPOSER "" INDEX 01 43:49:32 TRACK 15 AUDIO TITLE "Fever" PERFORMER "Fever Tree" REM COMPOSER "" INDEX 01 46:21:17 TRACK 16 AUDIO TITLE "Grand Candy Young Sweet" PERFORMER "Fever Tree" REM COMPOSER "" INDEX 01 50:03:50 TRACK 17 AUDIO TITLE "Jokes Are For Sad People" PERFORMER "Fever Tree" REM COMPOSER "" INDEX 01 52:00:22 TRACK 18 AUDIO TITLE "I've Never Seen Evergreen" PERFORMER "Fever Tree" REM COMPOSER "" INDEX 01 59:13:70 TRACK 19 AUDIO TITLE "Peace Of Mind" PERFORMER "Fever Tree" REM COMPOSER "" INDEX 01 62:38:07 TRACK 20 AUDIO TITLE "Death Is The Dancer" PERFORMER "Fever Tree" REM COMPOSER "" INDEX 01 65:51:12

Лог проверки качества

`-----------------------

DON'T MODIFY THIS FILE


PERFORMER: auCDtect Task Manager, ver. 1.5.1RC4 build 1.5.1.5
Copyright (c) 2008-2010 y-soft. All rights reserved
http://y-soft.org

ANALYZER: auCDtect: CD records authenticity detector, version 0.8.2
Copyright (c) 2004 Oleg Berngardt. All rights reserved.
Copyright (c) 2004 Alexander Djourik. All rights reserved.

FILE: Fever Tree - Fever Tree + Another Time Another Place.flac
Size: 412462384 Hash: 49A34F8FABEDCAEFF684515FAFE8D537 Accuracy: -m0
Conclusion: CDDA 99%
Signature: FC0DA001EAA173DC3B6ECE643CCD6F95665FB318 `

DR log

`foobar2000 1.3.9 / Замер динамического диапазона (DR) 1.1.1
Дата отчёта: 2019-05-06 13:03:02


Анализ: Fever Tree / Fever Tree + Another Time Another Place
DR Пики RMS Продолжительность трека

DR8 -0.90 дБ -11.77 дБ 1:37 1-Imitation Situation I (Toccata And Fugue)
DR9 -0.49 дБ -11.36 дБ 2:29 2-Where Do You Go?
DR9 -0.91 дБ -12.26 дБ 3:39 3-San Francisco Girls (Return Of The Native)
DR8 -0.49 дБ -9.83 дБ 2:47 4-Ninety-Nine And One Half
DR8 -0.49 дБ -9.51 дБ 2:35 5-Man Who Paints The Pictures
DR8 -0.49 дБ -9.94 дБ 3:58 6-Filligree & Shadow
DR9 -0.49 дБ -11.33 дБ 2:46 7-The Sun Also Rises
DR9 -0.49 дБ -11.75 дБ 3:33 8-Day Tripper / We Can Work It Out
DR8 -0.49 дБ -10.56 дБ 3:06 9-Nowadays Clancy Can't Even Sing
DR8 -1.26 дБ -12.69 дБ 3:49 10-Unlock My Door
DR10 -1.38 дБ -14.65 дБ 3:50 11-Come With Me (Rainsong)
DR8 -0.49 дБ -10.51 дБ 6:52 12-Man Who Paints The Pictures - part II
DR9 -0.49 дБ -11.14 дБ 2:47 13-What Time Did You Say It Is In Salt Lake City?
DR8 -0.49 дБ -10.01 дБ 2:32 14-Don't Come Crying To Me Girl
DR8 -0.49 дБ -10.71 дБ 3:42 15-Fever
DR9 -0.49 дБ -10.13 дБ 1:57 16-Grand Candy Young Sweet
DR11 -0.49 дБ -16.14 дБ 7:14 17-Jokes Are For Sad People
DR11 -0.88 дБ -14.85 дБ 3:24 18-I've Never Seen Evergreen
DR10 -0.49 дБ -13.80 дБ 3:13 19-Peace Of Mind

DR10 -0.49 дБ -12.47 дБ 3:54 20-Death Is The Dancer

Количество треков: 20
Реальные значения DR: DR9

Частота: 44100 Гц
Каналов: 2
Разрядность: 16
Битрейт: 788 кбит/с
Кодек: FLAC
================================================================================ `

Доп. информация

Состав

Dennis Keller – lead vocals
E.E. Wolfe – bass guitar
John Tuttle – percussion
Michael Knust – lead guitar
Rob Landes – cello, clavinet, flute, harp, harpsichord, organ, piano

Об исполнителе (группе)

A minor, if reasonably interesting, late-'60s psychedelic group, Houston's Fever Tree is most famous for their single "San Francisco Girls," with its dramatic melody, utopian lyrics, and searing fuzz guitar. Most of their best material, ironically, was written by their over-30 husband-wife production team, Scott and Vivian Holtzman, who had previously written material for Tex Ritter and the Mary Poppins soundtrack. These odd bedfellows produced some fairly distinctive material with more classical/Baroque influences and orchestral string arrangements than were usually found in psychedelic groups. Their pretty, wistful ballads (enhanced on their first album by arranger David Angel, who had also worked on Love's classic Forever Changes) endure better than their dirge-like fuzz grinders, which epitomize some of the more generic aspects of heavy psychedelia. Releasing four albums (the third of which, Creation, included guest guitar by future ZZ Top axeman Billy Gibbons), their records grew weaker and more meandering with time, and the group disbanded in 1970.

https://www.allmusic.com/artist/fever-tree-mn0000144629/biography
https://en.wikipedia.org/wiki/FeverTree(band))
https://en.wikipedia.org/wiki/FeverTree(album))

Об издании

https://www.discogs.com/Fever-Tree-Fever-Tree-Another-Time-Another-Place/release/2426875


More at ibit.to
And ibit.uno
And ibit.ws

Comments

Files

Fever Tree - 1993 - Fever Tree (1968) & Another Time Another Place (1968)CoversBack.jpg 734 kB
Fever Tree - 1993 - Fever Tree (1968) & Another Time Another Place (1968)CoversBooklet Inside01.jpg 978 kB
Fever Tree - 1993 - Fever Tree (1968) & Another Time Another Place (1968)CoversBooklet Inside02.jpg 948 kB
Fever Tree - 1993 - Fever Tree (1968) & Another Time Another Place (1968)CoversBooklet Outside01.jpg 962 kB
Fever Tree - 1993 - Fever Tree (1968) & Another Time Another Place (1968)CoversBooklet Outside02.jpg 965 kB
Fever Tree - 1993 - Fever Tree (1968) & Another Time Another Place (1968)CoversCD.jpg 454 kB
Fever Tree - 1993 - Fever Tree (1968) & Another Time Another Place (1968)CoversInlay.jpg 537 kB
Fever Tree - 1993 - Fever Tree (1968) & Another Time Another Place (1968)CoversMatrix.jpg 173 kB
Fever Tree - 1993 - Fever Tree (1968) & Another Time Another Place (1968)Fever Tree - Fever Tree + Another Time Another Place.cue 2.9 kB
Fever Tree - 1993 - Fever Tree (1968) & Another Time Another Place (1968)Fever Tree - Fever Tree + Another Time Another Place.flac 412 MB
Fever Tree - 1993 - Fever Tree (1968) & Another Time Another Place (1968)Fever Tree - Fever Tree + Another Time Another Place.log 13 kB
Fever Tree - 1993 - Fever Tree (1968) & Another Time Another Place (1968)front.jpg 92 kB

Stream

Downloading Seeding Fever Tree - 1993 - Fever Tree (1968) & Another Time Another Place (1968) from to 0 peers.
of
0 b/s / ↗0 b/s