• 9
  • 1
  • 690
  • done
Sponsored Downloadondemand_video
  • Fawlty Towers Seasons 1 and 2 RB58
  • 2.9 GB
  • RedBaron58
  • Fawlty Towers Seasons RB58
  • English
  • DVD
82%

Fawlty Towers: Specials(2001)

  • Comedy
  • Fawlty Towers is a British sitcom produced by BBC Television that was first broadcast on BBC2 in 1975 and 1979. Twelve episodes were made. The show was written by John Cleese and his then wife Connie Booth, both of whom also starred in the show. The series is set in Fawlty Towers, a fictional hotel in the seaside town of Torquay, on the "English Riviera". The plots centre around tense, rude and put-upon owner Basil Fawlty, his bossy wife Sybil, a comparatively normal chambermaid Polly, and hapless Spanish waiter Manuel and their attempts to run the hotel amidst farcical situations and an array of demanding and eccentric guests. In a list drawn up by the British Film Institute in 2000, voted by industry professionals, Fawlty Towers was named the best British television series of all time.

    English

    Description

    Fawlty Towers S01 - S02 x264 mp4

    https://www.imdb.com/title/tt0072500/

    Thank you for your kind comments and feedback on my other torrents, your feedback is welcome.

    About the Series:

    The series is set in Fawlty Towers, a fictional hotel in the seaside town of Torquay on
    the "English Riviera". The plots centre on tense, rude and put-upon owner Basil Fawlty (Cleese),
    his bossy wife Sybil (Prunella Scales), comparatively normal chambermaid-cum-receptionist
    Polly (Booth) who often is the peacemaker and voice of reason, and hapless and
    English-challenged Spanish waiter Manuel (Andrew Sachs), showing their attempts to run
    the hotel amidst farcical situations and an array of demanding and eccentric guests
    and tradespeople.

    I hope you enjoy.

    image

    image

    Technical: (All episodes are encoded to the same settings)

    General

    Complete name : D:Fawlty TowersS01Fawlty Towers S01E01 - A Touch of Class x264 RB58.mp4

    Format : MPEG-4

    Format profile : Base Media / Version 2

    Codec ID : mp42 (mp42/isom/avc1)

    File size : 239 MiB

    Duration : 30 min 19 s

    Overall bit rate mode : Variable

    Overall bit rate : 1 101 kb/s

    Encoded date : UTC 2017-10-18 18:16:58

    Tagged date : UTC 2017-10-18 18:21:20

    Writing application : HandBrake 0.9.8 2012071700

    Video

    ID : 1

    Format : AVC

    Format/Info : Advanced Video Codec

    Format profile : [email protected]
    Format settings, CABAC : Yes

    Format settings, ReFrames : 4 frames

    Codec ID : avc1

    Codec ID/Info : Advanced Video Coding

    Duration : 30 min 19 s

    Bit rate : 1 000 kb/s

    Width : 694 pixels

    Height : 574 pixels

    Display aspect ratio : 1.290

    Frame rate mode : Constant

    Frame rate : 25.000 FPS

    Color space : YUV

    Chroma subsampling : 4:2:0

    Bit depth : 8 bits

    Scan type : Progressive

    Bits/(Pixel*Frame) : 0.100

    Stream size : 217 MiB (91%)

    Writing library : x264 core 120

    Encoding settings : cabac=1 / ref=1 / deblock=1:0:0

    Encoded date : UTC 2017-10-18 18:16:58

    Tagged date : UTC 2017-10-18 18:21:20

    Color range : Limited

    Color primaries : BT.601 NTSC

    Transfer characteristics : BT.709

    Matrix coefficients : BT.601

    Menus : 3

    Audio

    ID : 2

    Format : AAC

    Format/Info : Advanced Audio Codec

    Format profile : LC

    Codec ID : 40

    Duration : 30 min 19 s

    Bit rate mode : Variable

    Bit rate : 96.0 kb/s

    Maximum bit rate : 165 kb/s

    Channel(s) : 2 channels

    Channel positions : Front: L R

    Sampling rate : 48.0 kHz

    Frame rate : 46.875 FPS (1024 spf)

    Compression mode : Lossy

    Stream size : 20.8 MiB (9%)

    Title : Stereo

    Language : English


    More at ibit.to
    And ibit.uno
    And ibit.ws

    Reviews

    Comments

    2 years ago

    give this guy a medal for this upload ,...well appreciated my friend

    Files

    S02/Fawlty Towers S02E02 - The Psychiatrist x264 RB58.mp4 285 MB
    S02/Fawlty Towers S02E05 - The Anniversary x264 RB58.mp4 229 MB
    S02/Fawlty Towers S02E04 - The Kipper and the Corpse x264 RB58.mp4 248 MB
    S02/Fawlty Towers S02E03 - Waldorf Salad x264 RB58.mp4 252 MB
    S02/Fawlty Towers S02E01 - Communication Problems x264 RB58.mp4 247 MB
    S02/Fawlty Towers S02E06 - Basil the Rat x264 RB58.mp4 265 MB
    Torrent Downloaded From Katcr.co - Kickasstorrents.txt -
    Fawlty Towers S01E03 - The Wedding Party x264 RB58.mp4 262 MB
    Fawlty Towers S01E02 - The Builders x264 RB58.mp4 222 MB
    Fawlty Towers S01E06 - The Germans x264 RB58.mp4 246 MB
    Fawlty Towers S01E01 - A Touch of Class x264 RB58.mp4 239 MB
    Fawlty Towers S01E04 - The Hotel Inspectors x264 RB58.mp4 227 MB
    Fawlty Towers S01E05 - Gourmet Night x264 RB58.mp4 225 MB
    S01/Fawlty Towers S01E03 - The Wedding Party x264 RB58.mp4 262 MB
    S01/Fawlty Towers S01E02 - The Builders x264 RB58.mp4 222 MB
    S01/Fawlty Towers S01E06 - The Germans x264 RB58.mp4 246 MB
    S01/Fawlty Towers S01E01 - A Touch of Class x264 RB58.mp4 239 MB
    S01/Fawlty Towers S01E04 - The Hotel Inspectors x264 RB58.mp4 227 MB
    S01/Fawlty Towers S01E05 - Gourmet Night x264 RB58.mp4 225 MB

    Stream

    Downloading Seeding Fawlty Towers Seasons 1 and 2 RB58 from to 0 peers.
    of
    0 b/s / ↗0 b/s