• 0
  • 0
  • done
Anonymous Downloadondemand_video
  • Falling.Down.1993.HDRip.Gavrilov.lumpeN.avi
  • 1.5 GB
  • lumpennn
  • Falling 1993 HDRip Gavrilov lumpeN avi
  • English,Spanish,Korean
  • HD
Warning! Use a VPN When Downloading Torrents!
Your IP Address is ,
Your Internet Provider can see when you download torrents! Hide your IP ADDRESS with a VPN
We strongly recommend Trust.Zone VPN to hide your torrenting. It's FREE!
DOWNLOAD VPN
73%

Falling Down (1993)

  • Crime Drama Thriller
  • On the day of his daughter's birthday, William "D-Fens" Foster is trying to get to the home of his estranged ex-wife to see his daughter. His car breaks down, so he leaves his car in a traffic jam in Los Angeles and decides to walk. He goes to a convenience store and tries to get some change for a phone call, but the Korean owner does not oblige, tipping Foster over the edge. The unstable Foster, so frustrated with the various flaws he sees in society, begins to psychotically and violently lash out against them.

    expand_more
    English
  • $25,000,000
  • Description

    С меня хватит! / Падение / Крушение / Falling Down

    image

    Страна : США, Франция, Великобритания

    Жанр : триллер, драма

    Год выпуска : 1993

    Продолжительность : 01:52:36

    Перевод : Авторский (одноголосый закадровый) Андрей Гаврилов

    Субтитры : нет

    Оригинальная аудиодорожка : нет

    Режиссер : Джоэл Шумахер / Joel Schumacher

    В ролях : Майкл Дуглас, Роберт Дювалл, Барбара Хёрши, Тьюзди Уэлд, Рэйчел Тикотин, Фредерик Форрест, Лоис Смит, Рэймонд Дж. Бэрри, Д.В. Моффетт, Стив Парк, Джеймс Кин, Кимберли Скотт, Макон МакКалман, Эбби Роу Смит, Джои Хоуп Сингер, Майкл Пол Чан, Ричард Монтойя, Брюс Битти, Мэттью Сакс, Агустин Родригес, Эдди Фриаш, Пэт Романо, Джулиан Скотт Эрена, Карина Арройяве, Ирен Ольга Лопез, Джеймс Моррисон (I), Бенжамин Мутон, Дин Халло, Джон Флек, Диди Пфайффер, Брент Хинкли

    Описание : Неудачи преследуют Уильяма всю жизнь. Особенно этим жарким летом. На работе его отправили в бессрочный отпуск. Решением суда ему запрещено встречаться с дочкой. Обозлившись на весь мир, Уильям решается на месть. Круша все на своем пути, он пробивается сквозь раскаленный город на день рождения к своей дочке. Люди воспринимают его как маньяка, и только опытный детектив Прендергаст знает в чем причина агрессии Уильяма…

    Доп. информация :
    Релиз от image

    Рип от Scarabey - http://rutracker.org/forum/viewtopic.php?t=3046058
    За перевод благодарим пользователей форума gross1978

    Сэмпл : http://multi-up.com/1179646

    Качество видео : HDRip

    Формат видео : AVI

    Видео : XviD; 720x304 (2,35:1); 1649 Kbps; 23,976 fps; 0,314 bit/pixel

    Аудио : AC3; 48 kHz, 192 Kbps; CBR; 2 ch

    MediaInfo

    Общее
    Полное имя : Falling.Down.1993.HDRip.Gavrilov.lumpeN.avi
    Формат : AVI
    Формат/Информация : Audio Video Interleave
    Размер файла : 1,46 Гбайт
    Продолжительность : 1 ч. 52 м.
    Общий поток : 1850 Кбит/сек
    Название фильма : lumpeN
    Программа кодирования : VirtualDubMod 1.5.10.2 (build 2540/release)
    Библиотека кодирования : VirtualDubMod build 2540/release

    Видео
    Идентификатор : 0
    Формат : MPEG-4 Visual
    Профиль формата : Advanced [email protected]
    Настройки формата : BVOP1 / Custom Matrix
    Параметр BVOP формата : 1
    Параметр QPel формата : Нет
    Параметр GMC формата : Без точки перехода
    Параметр матрицы формата : Выборочная
    Идентификатор кодека : XVID
    Идентификатор кодека/Подсказка : XviD
    Продолжительность : 1 ч. 52 м.
    Битрейт : 1649 Кбит/сек
    Ширина : 720 пикселей
    Высота : 304 пикселя
    Соотношение сторон : 2,35:1
    Частота кадров : 23,976 (24000/1001) кадра/сек
    Цветовое пространство : YUV
    Субдискретизация насыщенности : 4:2:0
    Битовая глубина : 8 бит
    Тип развёртки : Прогрессивная
    Метод сжатия : С потерями
    Бит/(Пиксели*Кадры) : 0.314
    Размер потока : 1,30 Гбайт (89%)
    Библиотека кодирования : XviD 1.2.1 (UTC 2008-12-04)

    Аудио
    Идентификатор : 1
    Формат : AC-3
    Формат/Информация : Audio Coding 3
    Идентификатор кодека : 2000
    Продолжительность : 1 ч. 52 м.
    Вид битрейта : Постоянный
    Битрейт : 192 Кбит/сек
    Каналы : 2 канала
    Расположение каналов : Front: L R
    Частота : 48,0 КГц
    Частота кадров : 31,250 кадров/сек (1536 SPF)
    Битовая глубина : 16 бит
    Метод сжатия : С потерями
    Размер потока : 155 Мбайт (10%)
    Выравнивание : Разделение по промежуткам
    Продолжительность промежутка : 42 мс. (1,00 видеокадр)
    Время предзагрузки промежутка : 500 мс.
    Заголовок : Gavrilov
    ServiceKind/String : Complete Main

    Скриншоты

    image image image image image image image


    More at ibit.to
    And ibit.uno
    And ibit.ws

    Reviews

    Having just watched this movie I can say that I enjoyed it, not overly so. Its not really a tale of urban reality more that the everyday annoyances that we do nothing about and this guy turns them into a personal insult. Its starts normally enough, stuck in traffic, beep noises and drilling on a hot day, his AC is broken, the window is broken. Instead of just shrugging it off with that Monday feeling he just abandons his car and goes for a walk, to start with its a shop owner with overpriced drinks that gets his shop smashed up a bit, later only when threatened with violence himself does he defend himself against 2 gang members. This is where things start to suddenly go weird, the gang members drive round and stumble across him somehow, (I'm British but I think LA is a little too big for that) then spray bullets in a drive by 20ft away and miss him completely but hit everyone around him and then they promptly crash. He walks over to the car, collects a bag of guns from it then goes and shoots up a burger bar because they are not serving breakfast, which he then changes his mind to lunch anyway and it continues from there. I don't know if this was meant to show some sort of mental brakedown due to his previous life choices but his empathy just disappears. At the start you could relate to the character but the more you watch the more you begin to distance yourself from that notion until you realise you just watched a movie where a guy went round killing people for no reason other than anger at himself for destroying his family life. It leaves me wondering if that was the directors intention or a happy coincidence to push that prospective on the viewer.

    Comments

    Files

    Falling.Down.1993.HDRip.Gavrilov.lumpeN.avi 1.5 GB

    Stream

    Downloading Seeding Falling.Down.1993.HDRip.Gavrilov.lumpeN.avi from to 0 peers.
    of
    0 b/s / ↗0 b/s