• 0
  • 1
  • 1
Sponsored Downloadondemand_video
  • Falling.Down.1993.720p.BluRay.x264-SiNNERS
  • 4.4 GB
  • Falling 1993 720p BluRay x264 SiNNERS
  • English,Spanish,Korean
  • x264/720
73%

Falling Down (1993)

  • Crime Drama Thriller
  • On the day of his daughter's birthday, William "D-Fens" Foster is trying to get to the home of his estranged ex-wife to see his daughter. His car breaks down, so he leaves his car in a traffic jam in Los Angeles and decides to walk. He goes to a convenience store and tries to get some change for a phone call, but the Korean owner does not oblige, tipping Foster over the edge. The unstable Foster, so frustrated with the various flaws he sees in society, begins to psychotically and violently lash out against them.

    expand_more
    English
  • $25,000,000
  • Description

    On the day of his daughter's (Joey Hope Singer) birthday| William "D-Fens" Foster (Michael Douglas) istrying to get to his estranged ex-wife's (Barbara Hershey) house to see his daughter. He has a breakdown and leaves his car in atraffic jam in Los Angeles and decides to walk. Along the way he stops at a convenience store and tries to get some change for a phone call but the owner| Mister Lee(Michael Paul Chan)| does not give him change. This destabilizes William who then breaks apart the shop with a baseball bat and goes toan isolated place to drink a coke. Two gangsters (Agustin Rodriguez & Eddie Frias) threaten him and hereacts by hitting them with the bat. D-FENS continues walking and stops at a phone booth. The gangsters hunt him down with their gang and shoot at him but crashtheir car. William goes nuts and takes their gym bag with weapons proceeding in his journey of rage against injustice. Meanwhile Sergeant Martin Prendergast (href="/name/nm0000380">Robert Duvall)| who is working on his last ...

    http://imdb.com/title/tt0106856/

    Screenshots:

    image

    SiN   NERS

    e!

    All right, no more Mr Fucking Nice Guy

    Falling.Down.1993.720p.BluRay.x264-SiNNERS

    Release......: 2009.05.18

    Size.........: 4.36 gigs

    IMDB rating..: 7.5/10 (36,029 votes)

    http://www.imdb.com/title/tt0106856/

    Source.......: Blu Ray

    Video specs..: x264 @ 5365 kbps

    Audio specs..: English 2.0

    • --> ac3/192 kbps

    Subtitles....: English

    Runtime......: 112  min 36 sec

    GROUP NEWS .

    Got our great new nfo. Thanks elle.

    And Sinners

    We Shall Be..

    SiNNERS iN

    2oo8                                                   .asc

    executed

    by  elle

    .________________________.-...-...-...-.._____________________///.

    .:.MisterX & MisterY.:.:..  / //  / ::.::.:::.Site Scripts V2.0:

    --____________/---------//--//---------_________________/'

    MediaInfo:

    Video

    ID                                       : 1

    Format                                   : AVC

    Format/Info                              : Advanced Video Codec

    Format profile                           : High@L3.1

    Format settings, CABAC                   : Yes

    Format settings, ReFrames                : 5 frames

    Codec ID                                 : V_MPEG4/ISO/AVC

    Duration                                 : 1h 52mn

    Bit rate                                 : 5 365 Kbps

    Width                                    : 1 280 pixels

    Height                                   : 528 pixels

    Display aspect ratio                     : 2.40:1

    Frame rate mode                          : Constant

    Frame rate                               : 23.976 fps

    Color space                              : YUV

    Chroma subsampling                       : 4:2:0

    Bit depth                                : 8 bits

    Scan type                                : Progressive

    Bits/(Pixel*Frame)                       : 0.331

    Stream size                              : 4.13 GiB (95%)

    Writing library                          : x264 core 67 r1148 400740b

    Encoding settings                        : cabac=1 / ref=5 / deblock=1:0:0 / analyse=0x3:0x113 / me=umh / subme=7 / psyrd=1.0:0.0 / mixedref=1 / merange=16 / chromame=1 / trellis=1 / 8x8dct=1 / cqm=0 / deadzone=21,11 / chromaqpoffset=-2 / threads=6 / nr=0 / decimate=1 / mbaff=0 / bframes=3 / bpyramid=1 / badapt=1 / bbias=0 / direct=1 / wpredb=1 / keyint=250 / keyintmin=25 / scenecut=40 / rc=2pass / bitrate=5365 / ratetol=1.0 / qcomp=0.60 / qpmin=10 / qpmax=51 / qpstep=4 / cplxblur=20.0 / qblur=0.5 / ipratio=1.40 / pbratio=1.30 / aq=1:1.00

    Language                                 : English

    Default                                  : Yes

    Forced                                   : No

    Audio

    ID                                       : 2

    Format                                   : AC-3

    Format/Info                              : Audio Coding 3

    Format profile                           : Dolby Digital

    Mode extension                           : CM (complete main)

    Format settings, Endianness              : Big

    Codec ID                                 : A_AC3

    Duration                                 : 1h 52mn

    Bit rate mode                            : Constant

    Bit rate                                 : 192 Kbps

    Channel(s)                               : 2 channels

    Channel positions                        : Front: L R

    Sampling rate                            : 48.0 KHz

    Bit depth                                : 16 bits

    Compression mode                         : Lossy

    Stream size                              : 155 MiB (3%)

    Language                                 : English

    Default                                  : Yes

    Forced                                   : No

    Text

    ID                                       : 3

    Format                                   : UTF-8

    Codec ID                                 : S_TEXT/UTF8

    Codec ID/Info                            : UTF-8 Plain Text

    Language                                 : English

    Default                                  : No

    Forced                                   : No


    More at ibit.to
    And ibit.uno
    And ibit.ws

    Reviews

    Having just watched this movie I can say that I enjoyed it, not overly so. Its not really a tale of urban reality more that the everyday annoyances that we do nothing about and this guy turns them into a personal insult. Its starts normally enough, stuck in traffic, beep noises and drilling on a hot day, his AC is broken, the window is broken. Instead of just shrugging it off with that Monday feeling he just abandons his car and goes for a walk, to start with its a shop owner with overpriced drinks that gets his shop smashed up a bit, later only when threatened with violence himself does he defend himself against 2 gang members. This is where things start to suddenly go weird, the gang members drive round and stumble across him somehow, (I'm British but I think LA is a little too big for that) then spray bullets in a drive by 20ft away and miss him completely but hit everyone around him and then they promptly crash. He walks over to the car, collects a bag of guns from it then goes and shoots up a burger bar because they are not serving breakfast, which he then changes his mind to lunch anyway and it continues from there. I don't know if this was meant to show some sort of mental brakedown due to his previous life choices but his empathy just disappears. At the start you could relate to the character but the more you watch the more you begin to distance yourself from that notion until you realise you just watched a movie where a guy went round killing people for no reason other than anger at himself for destroying his family life. It leaves me wondering if that was the directors intention or a happy coincidence to push that prospective on the viewer.

    Comments

    2 years ago

    Please seed. And thanks for the upload!

    4 years ago

    Thanks

    Files

    Falling.Down.1993.720p.BluRay.x264-SiNNERS.mkv 4.4 GB
    RARBG.com.txt 30 B
    Sample/falling.down.1993.720p.bluray.x264.sample-sinners.mkv -
    falling.down.1993.720p.bluray.x264-sinners.nfo 18 kB

    Stream

    Downloading Seeding Falling.Down.1993.720p.BluRay.x264-SiNNERS from to 0 peers.
    of
    0 b/s / ↗0 b/s