• 0
  • 0
  • 5
Sponsored Downloadondemand_video
  • Falling.Down.1993.720p.BluRay.H264.AAC-RARBG
  • 1.4 GB
  • Falling 1993 720p BluRay H264 RARBG
  • English,Spanish,Korean
  • x264/720
73%

Falling Down (1993)

  • Crime Drama Thriller
  • On the day of his daughter's birthday, William "D-Fens" Foster is trying to get to the home of his estranged ex-wife to see his daughter. His car breaks down, so he leaves his car in a traffic jam in Los Angeles and decides to walk. He goes to a convenience store and tries to get some change for a phone call, but the Korean owner does not oblige, tipping Foster over the edge. The unstable Foster, so frustrated with the various flaws he sees in society, begins to psychotically and violently lash out against them.

    expand_more
    English
  • $25,000,000
  • Description

    On the day of his daughter's (Joey Hope Singer) birthday| William "D-Fens" Foster (Michael Douglas) istrying to get to his estranged ex-wife's (Barbara Hershey) house to see his daughter. He has a breakdown and leaves his car in atraffic jam in Los Angeles and decides to walk. Along the way he stops at a convenience store and tries to get some change for a phone call but the owner| Mister Lee(Michael Paul Chan)| does not give him change. This destabilizes William who then breaks apart the shop with a baseball bat and goes toan isolated place to drink a coke. Two gangsters (Agustin Rodriguez & Eddie Frias) threaten him and hereacts by hitting them with the bat. D-FENS continues walking and stops at a phone booth. The gangsters hunt him down with their gang and shoot at him but crashtheir car. William goes nuts and takes their gym bag with weapons proceeding in his journey of rage against injustice. Meanwhile Sergeant Martin Prendergast (href="/name/nm0000380">Robert Duvall)| who is working on his last ...

    http://imdb.com/title/tt0106856/

    http://www.imdb.com/title/tt0106856/

    image

    image

    image

    image

    image

    MediaInfo:

    Video

    ID                                       : 1

    Format                                   : AVC

    Format/Info                              : Advanced Video Codec

    Format profile                           : High@L4.1

    Format settings, CABAC                   : Yes

    Format settings, ReFrames                : 4 frames

    Codec ID                                 : avc1

    Codec ID/Info                            : Advanced Video Coding

    Duration                                 : 1h 52mn

    Bit rate                                 : 1 500 Kbps

    Width                                    : 1 280 pixels

    Height                                   : 534 pixels

    Display aspect ratio                     : 2.40:1

    Frame rate mode                          : Constant

    Frame rate                               : 23.976 (23976/1000) fps

    Color space                              : YUV

    Chroma subsampling                       : 4:2:0

    Bit depth                                : 8 bits

    Scan type                                : Progressive

    Bits/(Pixel*Frame)                       : 0.092

    Stream size                              : 1.18 GiB (87%)

    Writing library                          : x264 core 148 r2638M 7599210

    Encoding settings                        : cabac=1 / ref=4 / deblock=1:-1:-1 / analyse=0x3:0x113 / me=umh / subme=9 / psy=1 / psyrd=1.00:0.15 / mixedref=1 / merange=24 / chromame=1 / trellis=2 / 8x8dct=1 / cqm=0 / deadzone=21,11 / fastpskip=1 / chromaqpoffset=-3 / threads=32 / lookaheadthreads=4 / slicedthreads=0 / nr=0 / decimate=1 / interlaced=0 / bluraycompat=0 / constrainedintra=0 / bframes=3 / bpyramid=2 / badapt=2 / bbias=0 / direct=3 / weightb=1 / opengop=0 / weightp=2 / keyint=250 / keyintmin=25 / scenecut=40 / intrarefresh=0 / rclookahead=50 / rc=2pass / mbtree=1 / bitrate=1500 / ratetol=1.0 / qcomp=0.60 / qpmin=0 / qpmax=69 / qpstep=4 / cplxblur=20.0 / qblur=0.5 / vbvmaxrate=31250 / vbvbufsize=31250 / nalhrd=none / filler=0 / ipratio=1.40 / aq=3:1.00

    Encoded date                             : UTC 2016-03-16 17:48:35

    Tagged date                              : UTC 2016-03-16 17:48:35

    Audio

    ID                                       : 2

    Format                                   : AAC

    Format/Info                              : Advanced Audio Codec

    Format profile                           : LC

    Codec ID                                 : 40

    Duration                                 : 1h 52mn

    Duration_LastFrame                       : 43ms

    Bit rate mode                            : Constant

    Bit rate                                 : 224 Kbps

    Channel(s)                               : 2 channels

    Channel(s)_Original                      : 6 channels

    Channel positions                        : Front: L C R, Side: L R, LFE

    Sampling rate                            : 48.0 KHz

    Frame rate                               : 46.875 fps (1024 spf)

    Compression mode                         : Lossy

    Stream size                              : 180 MiB (13%)

    Language                                 : English

    Default                                  : Yes

    Alternate group                          : 1

    Encoded date                             : UTC 2016-03-16 17:48:35

    Tagged date                              : UTC 2016-03-16 17:48:35


    More at ibit.to
    And ibit.uno
    And ibit.ws

    Reviews

    Having just watched this movie I can say that I enjoyed it, not overly so. Its not really a tale of urban reality more that the everyday annoyances that we do nothing about and this guy turns them into a personal insult. Its starts normally enough, stuck in traffic, beep noises and drilling on a hot day, his AC is broken, the window is broken. Instead of just shrugging it off with that Monday feeling he just abandons his car and goes for a walk, to start with its a shop owner with overpriced drinks that gets his shop smashed up a bit, later only when threatened with violence himself does he defend himself against 2 gang members. This is where things start to suddenly go weird, the gang members drive round and stumble across him somehow, (I'm British but I think LA is a little too big for that) then spray bullets in a drive by 20ft away and miss him completely but hit everyone around him and then they promptly crash. He walks over to the car, collects a bag of guns from it then goes and shoots up a burger bar because they are not serving breakfast, which he then changes his mind to lunch anyway and it continues from there. I don't know if this was meant to show some sort of mental brakedown due to his previous life choices but his empathy just disappears. At the start you could relate to the character but the more you watch the more you begin to distance yourself from that notion until you realise you just watched a movie where a guy went round killing people for no reason other than anger at himself for destroying his family life. It leaves me wondering if that was the directors intention or a happy coincidence to push that prospective on the viewer.

    Comments

    Files

    Falling.Down.1993.720p.BluRay.H264.AAC-RARBG.mp4 1.4 GB
    Falling.Down.1993.720p.BluRay.H264.AAC-RARBG.nfo 4.0 kB
    RARBG.COM.mp4 993 kB
    RARBG.COM.txt 30 B
    Subs/Cze.srt 90 kB
    Subs/Fin.srt 73 kB
    Subs/Fre.srt 82 kB
    Subs/Rum.srt 89 kB
    Subs/Slv.srt 92 kB
    Subs/Spa.srt 90 kB

    Stream

    Downloading Seeding Falling.Down.1993.720p.BluRay.H264.AAC-RARBG from to 0 peers.
    of
    0 b/s / ↗0 b/s