• 1
  • 0
Sponsored Downloadondemand_video
64%

Extraordinary Measures (2010)

  • Drama
  • Working-class father John Crowley is finally on the fast track to corporate success when his two young children, Megan and Patrick, are diagnosed with Pompe disease - a condition that prevents the body from breaking down sugar. With the support of his wife, Aileen, John ditches his career and teams with unconventional specialist Dr. Robert Stonehill to found a bio-tech company and develop a cure in time to save the lives of Megan and Patrick. As Dr. Stonehill works tirelessly to prove the theories that made him the black sheep of the medical community, a powerful bond is forged between the two unlikely allies.

    English
  • $31,000,000
  • Description

    A Portland couple have two children with Pompe disease| a genetic anomaly that kills most before a child's tenth birthday. The husband| John| an advertisingexecutive| contacts Robert Stonehill| a researcher in Nebraska who has done innovative research for an enzyme treatment. He has little money to fund his laboratory|and a thorny personality that drives away colleagues and funders. John and his wife Aileen raise money to help Stonehill's research and the required clinical trials.John takes on the task full time| working with venture capitalists and then rival teams of researchers. Time is running short| Stonehill's angry outburst hinder thecompany's faith in him| and the profit motive may upend John's hopes. The researchers race against time for the children who have the disease.

    http://imdb.com/title/tt1244659/

    http://www.imdb.com/title/tt1244659/

    image

    image

    image

    image

    image

    MediaInfo:

    Video

    ID                                       : 1

    Format                                   : AVC

    Format/Info                              : Advanced Video Codec

    Format profile                           : High@L4.1

    Format settings, CABAC                   : Yes

    Format settings, ReFrames                : 4 frames

    Codec ID                                 : avc1

    Codec ID/Info                            : Advanced Video Coding

    Duration                                 : 1h 46mn

    Bit rate                                 : 1 500 Kbps

    Width                                    : 1 280 pixels

    Height                                   : 692 pixels

    Display aspect ratio                     : 1.85:1

    Frame rate mode                          : Constant

    Frame rate                               : 23.976 fps

    Color space                              : YUV

    Chroma subsampling                       : 4:2:0

    Bit depth                                : 8 bits

    Scan type                                : Progressive

    Bits/(Pixel*Frame)                       : 0.071

    Stream size                              : 1.11 GiB (87%)

    Writing library                          : x264 core 148 r2597M e86f3a1

    Encoding settings                        : cabac=1 / ref=4 / deblock=1:-1:-1 / analyse=0x3:0x113 / me=umh / subme=9 / psy=1 / psyrd=1.00:0.15 / mixedref=1 / merange=24 / chromame=1 / trellis=2 / 8x8dct=1 / cqm=0 / deadzone=21,11 / fastpskip=1 / chromaqpoffset=-3 / threads=32 / lookaheadthreads=4 / slicedthreads=0 / nr=0 / decimate=1 / interlaced=0 / bluraycompat=0 / constrainedintra=0 / bframes=3 / bpyramid=2 / badapt=1 / bbias=0 / direct=1 / weightb=1 / opengop=0 / weightp=2 / keyint=250 / keyintmin=25 / scenecut=40 / intrarefresh=0 / rclookahead=50 / rc=2pass / mbtree=1 / bitrate=1500 / ratetol=1.0 / qcomp=0.60 / qpmin=0 / qpmax=69 / qpstep=4 / cplxblur=20.0 / qblur=0.5 / vbvmaxrate=31250 / vbvbufsize=31250 / nalhrd=none / filler=0 / ipratio=1.40 / aq=3:1.00

    Encoded date                             : UTC 1904-01-01 00:00:00

    Tagged date                              : UTC 1904-01-01 00:00:00

    Audio

    ID                                       : 2

    Format                                   : AAC

    Format/Info                              : Advanced Audio Codec

    Format profile                           : LC

    Codec ID                                 : 40

    Duration                                 : 1h 46mn

    Bit rate mode                            : Constant

    Bit rate                                 : 224 Kbps

    Channel(s)                               : 2 channels

    Channel(s)_Original                      : 6 channels

    Channel positions                        : Front: L C R, Side: L R, LFE

    Sampling rate                            : 48.0 KHz

    Compression mode                         : Lossy

    Stream size                              : 170 MiB (13%)

    Language                                 : English

    Encoded date                             : UTC 1904-01-01 00:00:00

    Tagged date                              : UTC 1904-01-01 00:00:00

    Menu #1

    ID                                       : 3

    Codec ID                                 : text

    Duration                                 : 1h 46mn

    Language                                 : English

    Encoded date                             : UTC 1904-01-01 00:00:00

    Tagged date                              : UTC 1904-01-01 00:00:00

    Bit rate mode                            : CBR

    00:00:00.000                             : 00:00:00.000

    00:09:16.891                             : 00:09:16.848

    00:14:03.803                             : 00:14:03.760

    00:17:14.410                             : 00:17:14.367

    00:24:04.945                             : 00:24:04.902

    00:34:39.412                             : 00:34:39.369

    00:39:23.863                             : 00:39:23.820

    00:45:14.046                             : 00:45:14.003

    00:54:33.522                             : 00:54:33.479

    01:01:08.374                             : 01:01:08.331

    01:07:12.780                             : 01:07:12.737

    01:14:38.142                             : 01:14:38.099

    01:19:47.701                             : 01:19:47.658

    01:29:16.185                             : 01:29:16.142

    01:32:37.678                             : 01:32:37.635

    01:38:11.428                             : 01:38:11.385

    Menu #2

    00:00:00.043                             : 00:00:00.000

    00:09:16.891                             : 00:09:16.848

    00:14:03.803                             : 00:14:03.760

    00:17:14.410                             : 00:17:14.367

    00:24:04.945                             : 00:24:04.902

    00:34:39.412                             : 00:34:39.369

    00:39:23.863                             : 00:39:23.820

    00:45:14.046                             : 00:45:14.003

    00:54:33.522                             : 00:54:33.479

    01:01:08.374                             : 01:01:08.331

    01:07:12.780                             : 01:07:12.737

    01:14:38.142                             : 01:14:38.099

    01:19:47.701                             : 01:19:47.658

    01:29:16.185                             : 01:29:16.142

    01:32:37.678                             : 01:32:37.635

    01:38:11.428                             : 01:38:11.385


    More at ibit.to
    And ibit.uno
    And ibit.ws

    Reviews

    Comments

    2 years ago

    26 days, still at 93%.

    2 years ago

    16 days and I've made it to 93%. A little help please.

    2 years ago

    92% for 15 days. If someone would seed, that would be awesome. Thank you.

    2 years ago

    I have been at 92% for 8 days. Please seed. Thank you.

    Files

    Extraordinary.Measures.2010.720p.BluRay.H264.AAC-RARBG.mp4 1.3 GB
    Extraordinary.Measures.2010.720p.BluRay.H264.AAC-RARBG.nfo 6.0 kB
    RARBG.COM.mp4 993 kB
    RARBG.COM.txt 30 B
    Subs/Chi.srt 40 B
    Subs/Gre.srt 140 kB
    Subs/Spa-SDH.srt 101 kB
    Subs/Spa.srt 94 kB
    Subs/Tur.srt 95 kB

    Stream

    Downloading Seeding Extraordinary.Measures.2010.720p.BluRay.H264.AAC-RARBG from to 0 peers.
    of
    0 b/s / ↗0 b/s