• 0
  • 0
  • 314
Sponsored Downloadondemand_video
64%

Escape Room (2019)

  • Horror Thriller Action Science Fiction Adventure Drama Mystery
  • Six strangers find themselves in circumstances beyond their control, and must use their wits to survive.

    expand_more
    English
  • $9,000,000
  • Description

    https://www.gopisahi.xyz/

    image

    Escape Room 2019 x264 720p Esub BluRay Dual Audio English Hindi GOPISAHI

    Format : Matroska

    Format version : Version 4 / Version 2

    File size : 966 MiB

    Duration : 1 h 39 min

    Overall bit rate : 1 356 kb/s

    Movie name : Escape Room 2019 GOPISAHI

    Video

    Format : AVC

    Format/Info : Advanced Video Codec

    Format profile : [email protected]
    Codec ID : V_MPEG4/ISO/AVC

    Duration : 1 h 39 min

    Bit rate : 899 kb/s

    Width : 1 280 pixels

    Height : 534 pixels

    Display aspect ratio : 2.40:1

    Frame rate mode : Constant

    Frame rate : 23.976 (24000/1001) FPS

    Color space : YUV

    Chroma subsampling : 4:2:0

    Bit depth : 8 bits

    Scan type : Progressive

    Bits/(Pixel*Frame) : 0.055

    Stream size : 640 MiB (66%)

    Title : GOPISAHI

    Writing library : x264 core 157 r2935 545de2f

    Audio #1

    Format : AAC

    Format/Info : Advanced Audio Codec

    Duration : 1 h 39 min

    Bit rate : 192 kb/s

    Channel(s) : 6 channels

    Channel positions : Front: L C R, Side: C, Back: L R

    Sampling rate : 48.0 kHz

    Frame rate : 46.875 FPS (1024 SPF)

    Compression mode : Lossy

    Delay relative to video : -21 ms

    Stream size : 137 MiB (14%)

    Title : GOPISAHI

    Language : Hindi

    Audio #2

    Format : AAC

    Duration : 1 h 39 min

    Bit rate : 192 kb/s

    Channel(s) : 6 channels

    Channel positions : Front: L C R, Side: C, Back: L R

    Sampling rate : 48.0 kHz

    Frame rate : 46.875 FPS (1024 SPF)

    Compression mode : Lossy

    Delay relative to video : -21 ms

    Stream size : 137 MiB (14%)

    Title : GOPISAHI

    Language : English

    Text #1

    Format : PGS

    Stream size : 43.6 MiB (5%)

    Language : English

    Text #2

    Format : PGS

    Muxing mode : zlib

    Stream size : 31.6 MiB (3%)

    Language : English

    Text #3

    Format : PGS

    Language : English

    image

    image

    image


    More at ibit.to
    And ibit.uno
    And ibit.ws

    Reviews

    I think this is about the third escape room based horror movie I've seen, and I'm **preeeeeeetty sure** it's the best one? _Final rating:★★½ - Had a lot that appealed to me, didn’t quite work as a whole._

    Comments

    Files

    Escape Room 2019 x264 720p Esub BluRay Dual Audio English Hindi GOPISAHI.mkv 966 MB

    Stream

    Downloading Seeding Escape Room 2019 x264 720p Esub BluRay Dual Audio English Hindi GOPISAHI.mkv from to 0 peers.
    of
    0 b/s / ↗0 b/s