• 14
  • 5
  • 368
  • done
Sponsored Downloadondemand_video
64%

Escape Room (2019)

  • Horror Thriller Action Science Fiction Adventure Drama Mystery
  • Six strangers find themselves in circumstances beyond their control, and must use their wits to survive.

    expand_more
    English
  • $9,000,000
  • Description

    image

    image

    image

    image

    Escape Room (2019) 720p BluRay x264 Dual Audio [Hindi DD5.1 - English DD5.1] - ESUBS ~ Ranvijay [Team SSX]

    Thanks To Hammer For Hindi Audio

    image

    Buy RDP Online

    **Format : Matroska

    Format version : Version 4 / Version 2

    File size : 1.48 GiB

    Duration : 1 h 39 min

    Overall bit rate : 2 120 kb/s

    Movie name : Escape Room (2019) 720p BluRay x264 Dual Audio [Hindi DD5.1 - Eng DD5.1] - ESUBS ~ Ranvijay

    Video

    ID : 1

    Format : AVC

    Format/Info : Advanced Video Codec

    Duration : 1 h 39 min

    Bit rate : 1 500 kb/s

    Width : 1 280 pixels

    Height : 544 pixels

    Display aspect ratio : 2.35:1

    Frame rate mode : Constant

    Frame rate : 23.976 (24000/1001) FPS

    Color space : YUV

    Chroma subsampling : 4:2:0

    Bit depth : 8 bits

    Scan type : Progressive

    Bits/(Pixel*Frame) : 0.090

    Stream size : 1.04 GiB (71%)

    Title : ~Ranvijay~

    Audio #1

    ID : 2

    Format : AC-3

    Format/Info : Audio Coding 3

    Codec ID : A_AC3

    Duration : 1 h 39 min

    Bit rate mode : Constant

    Bit rate : 448 kb/s

    Channel(s) : 6 channels

    Channel positions : Front: L C R, Side: L R, LFE

    Sampling rate : 48.0 kHz

    Frame rate : 31.250 FPS (1536 SPF)

    Bit depth : 16 bits

    Compression mode : Lossy

    Stream size : 319 MiB (21%)

    Title : ~Ranvijay~

    Language : Hindi

    Service kind : Complete Main

    Default : Yes

    Forced : Yes

    Audio #2

    ID : 3

    Format : AC-3

    Format/Info : Audio Coding 3

    Codec ID : A_AC3

    Duration : 1 h 39 min

    Bit rate mode : Constant

    Bit rate : 128 kb/s

    Channel(s) : 6 channels

    Channel positions : Front: L C R, Side: L R, LFE

    Sampling rate : 48.0 kHz

    Frame rate : 31.250 FPS (1536 SPF)

    Bit depth : 16 bits

    Compression mode : Lossy

    Stream size : 91.2 MiB (6%)

    Title : ~Ranvijay~

    Language : English

    Service kind : Complete Main

    Default : No

    Forced : No

    Text #1

    ID : 4

    Format : PGS

    Muxing mode : zlib

    Codec ID : S_HDMV/PGS

    Codec ID/Info : Picture based subtitle format used on BDs/HD-DVDs

    Duration : 1 h 33 min

    Bit rate : 41.9 kb/s

    Count of elements : 2666

    Stream size : 28.1 MiB (2%)

    Title : ~Ranvijay~

    Language : English

    Default : Yes

    Forced : Yes

    Text #2

    ID : 5

    Format : PGS

    Muxing mode : zlib

    Codec ID : S_HDMV/PGS

    Codec ID/Info : Picture based subtitle format used on BDs/HD-DVDs

    Duration : 1 h 37 min

    Bit rate : 45.6 kb/s

    Count of elements : 3087

    Stream size : 31.6 MiB (2%)

    Title : ~Ranvijay~

    Language : English

    Default : No

    Forced : No

    Menu

    00:00:00.000 : en:(01)00:00:00:000

    00:04:36.025 : en:(02)00:04:36:025

    00:09:25.648 : en:(03)00:09:25:648

    00:14:08.764 : en:(04)00:14:08:764

    00:19:46.101 : en:(05)00:19:46:101

    00:25:55.220 : en:(06)00:25:55:220

    00:33:08.945 : en:(07)00:33:08:945

    00:37:27.161 : en:(08)00:37:27:161

    00:43:05.082 : en:(09)00:43:05:082

    00:50:06.169 : en:(10)00:50:06:169

    00:53:58.568 : en:(11)00:53:58:568

    01:03:15.291 : en:(12)01:03:15:291

    01:09:07.893 : en:(13)01:09:07:893

    01:16:14.695 : en:(14)01:16:14:695

    01:22:48.755 : en:(15)01:22:48:755

    01:30:27.880 : en:(16)01:30:27:880**

    image

    image
    image
    image
    image
    image
    image
    image
    image
    image
    image
    image
    image
    image

    image

    Don't walk as you are king, walk as you don't care who the king is....!!

    image[/b]


    More at ibit.to
    And ibit.uno
    And ibit.ws

    Reviews

    Comments

    1 month ago

    THANKS BRO

    Files

    Escape Room (2019) 720p BluRay x264 Dual Audio [Hindi DD5.1 - Eng DD5.1] - ESUBS ~ Ranvijay/SpecialRDP - Premium & Affordable Web Hosting Solution.url -
    Escape Room (2019) 720p BluRay x264 Dual Audio [Hindi DD5.1 - Eng DD5.1] - ESUBS ~ Ranvijay/Sample - Escape Room (2019) 720p BluRay x264 Dual Audio [H 11 MB
    Escape Room (2019) 720p BluRay x264 Dual Audio [Hindi DD5.1 - Eng DD5.1] - ESUBS ~ Ranvijay/Escape Room (2019) 720p BluRay x264 Dual Audio [Hindi DD5. 1.5 GB

    Stream

    Downloading Seeding Escape Room (2019) 720p BluRay x264 Dual Audio [Hindi DD5.1 - English DD5.1] - ESUBS ~ Ranvijay [Team SSX] from to 0 peers.
    of
    0 b/s / ↗0 b/s