• 5
  • 2
  • 110
  • done
Sponsored Downloadondemand_video
  • Escape Room 2019 1080p WEB-DL x264 Dual Audio [Hindi - English] ESub [MW]
  • 1.7 GB
  • moviezworldz
  • Escape Room 2019 1080p WEB x264 Dual Audio Hindi English ESub
  • Hindi
  • Dubs/Dual Audio
64%

Escape Room (2019)

  • Horror Thriller Action Science Fiction Adventure Drama Mystery
  • Six strangers find themselves in circumstances beyond their control, and must use their wits to survive.

    expand_more
    English
  • $9,000,000
  • Description

    image

    **
    General

    Format : Matroska

    Format version : Version 4

    File size : 1.67 GiB

    Duration : 1 h 39 min

    Overall bit rate : 2 401 kb/s

    Video

    ID : 1

    Format : AVC

    Format/Info : Advanced Video Codec

    Format profile : [email protected]
    Format settings : CABAC / 4 Ref Frames

    Format settings, CABAC : Yes

    Format settings, RefFrames : 4 frames

    Codec ID : V_MPEG4/ISO/AVC

    Duration : 1 h 39 min

    Bit rate : 2 200 kb/s

    Width : 1 920 pixels

    Height : 800 pixels

    Display aspect ratio : 2.40:1

    Frame rate mode : Constant

    Frame rate : 23.976 (24000/1001) FPS

    Color space : YUV

    Chroma subsampling : 4:2:0

    Bit depth : 8 bits

    Scan type : Progressive

    Bits/(Pixel*Frame) : 0.060

    Stream size : 1.49 GiB (89%)

    Writing library : x264 core 157 r2935 545de2f

    Audio #1

    ID : 2

    Format : AAC LC

    Codec ID : A_AAC-2

    Duration : 1 h 39 min

    Bit rate : 128 kb/s

    Channel(s) : 2 channels

    Channel layout : L R

    Sampling rate : 48.0 kHz

    Frame rate : 46.875 FPS (1024 SPF)

    Compression mode : Lossy

    Stream size : 91.2 MiB (5%)

    Language : Hindi

    Default : Yes

    Forced : No

    Audio #2

    ID : 3

    Format : AAC LC

    Codec ID : A_AAC-2

    Duration : 1 h 39 min

    Bit rate : 128 kb/s

    Channel(s) : 2 channels

    Channel layout : L R

    Sampling rate : 48.0 kHz

    Frame rate : 46.875 FPS (1024 SPF)

    Compression mode : Lossy

    Stream size : 91.4 MiB (5%)

    Language : English

    Default : No

    Forced : No

    Text

    ID : 4

    Format : UTF-8

    Codec ID : S_TEXT/UTF8

    Codec ID/Info : UTF-8 Plain Text

    Duration : 1 h 33 min

    Bit rate : 99 b/s

    Count of elements : 1550

    Stream size : 68.2 KiB (0%)

    Language : English

    Default : Yes

    Forced : No
    **

    Note :- It's Hindi Cleaned Audio

    Click To View Image

    image
    image
    image
    image
    image
    image
    image


    More at ibit.to
    And ibit.uno
    And ibit.ws

    Reviews

    Comments

    Files

    Escape Room 2019 1080p WEB-DL x264 Dual Audio [Hindi - English] ESub [MW].mkv 1.7 GB

    Stream

    Downloading Seeding Escape Room 2019 1080p WEB-DL x264 Dual Audio [Hindi - English] ESub [MW] from to 0 peers.
    of
    0 b/s / ↗0 b/s