• 1
  • 0
  • 132
Sponsored Downloadondemand_video
64%

Escape Room (2019)

  • Horror Thriller Action Science Fiction Adventure Drama Mystery
  • Six strangers find themselves in circumstances beyond their control, and must use their wits to survive.

    expand_more
    English
  • $9,000,000
  • Description

    image

    _

    You're invited to play for your life...

    _

    image

    _

    Escape Room (2019) 1080p 10bit Bluray x265 HEVC [Org BD 5.1 Hindi + DD 5.1 English] ESubs ~ TombDoc

    _

    _

    Org Untouched Bluray DD 5.1 448Kbps Hindi Audio By Hammer {Thanks}

    _

    Code:

    __ Format                                   : Matroska

    Format version                           : Version 4

    File size                                : 3.37 GiB

    Duration                                 : 1 h 39 min

    Overall bit rate                         : 4 843 kb/s

    Writing frontend                         : TombDoc

    Video

    ID                                       : 1

    Format                                   : HEVC

    Format/Info                              : High Efficiency Video Coding

    Format profile                           : Main [email protected]@Main

    Codec ID                                 : V_MPEGH/ISO/HEVC

    Duration                                 : 1 h 38 min

    Bit rate                                 : 4 010 kb/s

    Width                                    : 1 920 pixels

    Height                                   : 804 pixels

    Display aspect ratio                     : 2.40:1

    Frame rate mode                          : Constant

    Frame rate                               : 23.976 (24000/1001) FPS

    Color space                              : YUV

    Chroma subsampling                       : 4:2:0

    Bit depth                                : 10 bits

    Bits/(Pixel*Frame)                       : 0.108

    Stream size                              : 2.76 GiB (82%)

    Writing library                          : x265 3.0_Au+18-768ab38fd5fd:[Windows][GCC 9.0.1][64 bit] 10bit

    Encoding settings                        : cpuid=1049583 / frame-threads=5 / numa-pools=16,16 / wpp / no-pmode / no-pme / no-psnr / no-ssim / log-level=2 / input-csp=1 / input-res=1920x804 / interlace=0 / total-frames=143328 / level-idc=0 / high-tier=1 / uhd-bd=0 / ref=5 / no-allow-non-conformance / no-repeat-headers / annexb / no-aud / no-hrd / info / hash=0 / no-temporal-layers / open-gop / min-keyint=23 / keyint=250 / gop-lookahead=0 / bframes=8 / b-adapt=2 / b-pyramid / bframe-bias=0 / rc-lookahead=40 / lookahead-slices=4 / scenecut=40 / radl=0 / no-splice / no-intra-refresh / ctu=64 / min-cu-size=8 / rect / amp / max-tu-size=32 / tu-inter-depth=1 / tu-intra-depth=1 / limit-tu=0 / rdoq-level=2 / dynamic-rd=0.00 / ssim-rd / signhide / no-tskip / nr-intra=0 / nr-inter=0 / no-constrained-intra / strong-intra-smoothing / max-merge=4 / limit-refs=3 / limit-modes / me=3 / subme=4 / merange=57 / temporal-mvp / weightp / no-weightb / no-analyze-src-pics / deblock=0:0 / sao / no-sao-non-deblock / rd=4 / no-early-skip / rskip / no-fast-intra / no-tskip-fast / no-cu-lossless / no-b-intra / no-splitrd-skip / rdpenalty=0 / psy-rd=0.00 / psy-rdoq=1.00 / no-rd-refine / no-lossless / cbqpoffs=0 / crqpoffs=0 / rc=abr / bitrate=4000 / qcomp=0.60 / qpstep=4 / stats-write=0 / stats-read=2 / cplxblur=20.0 / qblur=0.5 / ipratio=1.40 / pbratio=1.30 / aq-mode=3 / aq-strength=1.00 / cutree / zone-count=0 / no-strict-cbr / qg-size=32 / no-rc-grain / qpmax=69 / qpmin=0 / no-const-vbv / sar=0 / overscan=0 / videoformat=5 / range=0 / colorprim=2 / transfer=2 / colormatrix=2 / chromaloc=0 / display-window=0 / max-cll=0,0 / min-luma=0 / max-luma=1023 / log2-max-poc-lsb=8 / vui-timing-info / vui-hrd-info / slices=1 / no-opt-qp-pps / no-opt-ref-list-length-pps / no-multi-pass-opt-rps / scenecut-bias=0.05 / no-opt-cu-delta-qp / aq-motion / no-hdr / no-hdr-opt / no-dhdr10-opt / no-idr-recovery-sei / analysis-reuse-level=5 / scale-factor=0 / refine-intra=0 / refine-inter=0 / refine-mv=0 / refine-ctu-distortion=0 / no-limit-sao / ctu-info=0 / no-lowpass-dct / refine-analysis-type=0 / copy-pic=1 / max-ausize-factor=1.0 / no-dynamic-refine / no-single-sei / hevc-aq / no-svt / qp-adaptation-range=1.00

    Default                                  : Yes

    Forced                                   : No

    Audio #1

    ID                                       : 2

    Format                                   : AC-3

    Format/Info                              : Audio Coding 3

    Commercial name                          : Dolby Digital

    Codec ID                                 : A_AC3

    Duration                                 : 1 h 39 min

    Bit rate mode                            : Constant

    Bit rate                                 : 448 kb/s

    Channel(s)                               : 6 channels

    Channel layout                           : L R C LFE Ls Rs

    Sampling rate                            : 48.0 kHz

    Frame rate                               : 31.250 FPS (1536 SPF)

    Bit depth                                : 16 bits

    Compression mode                         : Lossy

    Stream size                              : 319 MiB (9%)

    Title                                    : Org BD 5.1 448Kbps ~ TombDoc

    Language                                 : Hindi

    Service kind                             : Complete Main

    Default                                  : Yes

    Forced                                   : Yes

    Audio #2

    ID                                       : 3

    Format                                   : AC-3

    Format/Info                              : Audio Coding 3

    Commercial name                          : Dolby Digital

    Codec ID                                 : A_AC3

    Duration                                 : 1 h 39 min

    Bit rate mode                            : Constant

    Bit rate                                 : 384 kb/s

    Channel(s)                               : 6 channels

    Channel layout                           : L R C LFE Ls Rs

    Sampling rate                            : 48.0 kHz

    Frame rate                               : 31.250 FPS (1536 SPF)

    Bit depth                                : 16 bits

    Compression mode                         : Lossy

    Stream size                              : 274 MiB (8%)

    Title                                    : DD 5.1 English

    Language                                 : English

    Service kind                             : Complete Main

    Default                                  : No

    Forced                                   : No

    Text #1

    ID                                       : 4

    Format                                   : PGS

    Muxing mode                              : zlib

    Codec ID                                 : S_HDMV/PGS

    Codec ID/Info                            : Picture based subtitle format used on BDs/HD-DVDs

    Duration                                 : 1 h 33 min

    Bit rate                                 : 41.8 kb/s

    Count of elements                        : 2636

    Stream size                              : 28.0 MiB (1%)

    Title                                    : Eng BD-PGS

    Language                                 : English

    Default                                  : Yes

    Forced                                   : Yes

    Text #2

    ID                                       : 5

    Format                                   : PGS

    Muxing mode                              : zlib

    Codec ID                                 : S_HDMV/PGS

    Codec ID/Info                            : Picture based subtitle format used on BDs/HD-DVDs

    Duration                                 : 1 h 37 min

    Bit rate                                 : 45.6 kb/s

    Count of elements                        : 3013

    Stream size                              : 31.6 MiB (1%)

    Title                                    : Eng BD-PGS-SDH

    Language                                 : English

    Default                                  : No

    Forced                                   : No

    Menu

    00:00:00.000                             : en:Chapter 01

    00:04:36.026                             : en:Chapter 02

    00:09:25.648                             : en:Chapter 03

    00:14:08.765                             : en:Chapter 04

    00:19:46.102                             : en:Chapter 05

    00:25:55.220                             : en:Chapter 06

    00:33:08.945                             : en:Chapter 07

    00:37:27.162                             : en:Chapter 08

    00:43:05.082                             : en:Chapter 09

    00:50:06.170                             : en:Chapter 10

    00:53:58.569                             : en:Chapter 11

    01:03:15.291                             : en:Chapter 12

    01:09:07.894                             : en:Chapter 13

    01:16:14.695                             : en:Chapter 14

    01:22:48.755                             : en:Chapter 15

    01:30:27.881                             : en:Chapter 16 __

    imageimageimageimageimageimageimageimage

    Code:

    __ Source: Escape Room 2019 BluRay 1080p AVC DTS-HD MA5.1-CHDBits __

    image
    image


    More at ibit.to
    And ibit.uno
    And ibit.ws

    Reviews

    Comments

    1 month ago

    Thank you very much McuDudeS . Can you please upload Yogi Bear and Over The Hedge in Dual Audio eng-hin. and can u confirm when Ralph Breaks the Internet 2018 and How to Train Your Dragon The Hidden World will be uploaded in dual audio. Thaks

    Files

    E.R.jpg 532 kB
    Escape Room (2019) 1080p 10bit Bluray x265 HEVC [Org BD 5.1 Hindi + DD 5.1 English] ESubs ~ TombDoc.mkv 3.4 GB

    Stream

    Downloading Seeding Escape Room (2019) 1080p 10bit Bluray x265 HEVC [Org BD 5.1 Hindi + DD 5.1 English] ESubs ~ TombDoc from to 0 peers.
    of
    0 b/s / ↗0 b/s