• 0
  • 0
  • done
Anonymous Download
  • Erroll Garner 1958
  • 528 MB
  • jazzluq
  • Erroll Garner 1958
  • Зарубежный джаз
Warning! Use a VPN When Downloading Torrents!
Your IP Address is ,
Your Internet Provider can see when you download torrents! Hide your IP ADDRESS with a VPN
We strongly recommend Trust.Zone VPN to hide your torrenting. It's FREE!
DOWNLOAD VPN

Description

Erroll Garner - Paris Impressions - 1958 (2CD)

image

Жанр : swing/bebop

Год выпуска диска : 1993

Производитель диска : Sony Records SRCS 7140~1 (japan)

Аудио кодек : FLAC

Тип рипа : tracks+.cue

Битрейт аудио : lossless

Продолжительность : 01 : 40 : 32

Трэклист :
Disc: 1
1. The Song from Moulin Rouge
2. I Love Paris
3. French Doll
4. Don't Look for Me [Harpsicord]
5. Louise
6. Farewell to Paris
7. Left Bank Swing
8. Cote D'Azur [Harpsicord]

Disc: 2
1. La Vie En Rose
2. Paris Midnight
3. The French Touch
4. Paris Bounce
5. Paris Blues [Harpsicord]
6. My Man
7. La Petite Mambo
8. The Last Time I Saw Paris
9. When Paris Cries [Harpsicord]
10. Moroccan Quarter

Доп. информация : рип сделан с оригинального cd из моей коллекции . фото обложки своё (не нашёл в сети фото такого издания).

скрытый текст

скрытый текст

Exact Audio Copy V0.99 prebeta 5 from 4. May 2009

Отчёт EAC об извлечении, выполненном 31. марта 2010, 14:38

Erroll Garner / Paris Impressions

Дисковод: SONY DVD RW DRX-S70U Adapter: 2 ID: 0

Режим чтения : Достоверность
Использование точного потока : Да
Отключение кэша аудио : Да
Использование указателей C2 : Нет

Коррекция смещения при чтении : 48
Способность читать области Lead-in и Lead-out : Нет
Заполнение пропущенных сэмплов тишиной : Да
Удаление блоков с тишиной в начале и конце : Нет
При вычислениях CRC использовались нулевые сэмплы : Да
Интерфейс : Встроенный Win32-интерфейс для Win NT/2000
Обработка зазоров : Добавлено к предыдущему треку

Выходной формат : Пользовательский кодировщик
Выбранный битрейт : 768 kBit/s
Качество : Высокий
Добавление ID3-тэга : Нет
Утилита сжатия : C:Program FilesExact Audio CopyFLACFLAC.EXE
Дополнительные параметры : -6 -V -T "ARTIST=%a" -T "TITLE=%t" -T "ALBUM=%g" -T "DATE=%y" -T "TRACKNUMBER=%n" -T "GENRE=%m" -T "COMMENT=%e" %s -o %d

TOC извлечённого CD

Трек | Старт | Длительность | Начальный сектор | Конечный сектор


1 | 0:00.00 | 3:33.70 | 0 | 16044
2 | 3:33.70 | 5:07.57 | 16045 | 39126
3 | 8:41.52 | 5:51.10 | 39127 | 65461
4 | 14:32.62 | 8:04.10 | 65462 | 101771
5 | 22:36.72 | 4:11.58 | 101772 | 120654
6 | 26:48.55 | 7:21.17 | 120655 | 153746
7 | 34:09.72 | 5:44.68 | 153747 | 179614
8 | 39:54.65 | 5:21.10 | 179615 | 203699

Трек 1

Имя файла d:My DocumentsErroll Garner 1958CD 101.Erroll Garner-The song from Moulin Rouge.wav

Длина предзазора 0:00:02.00

Пиковый уровень 87.6 %
Качество трека 100.0 %
CRC теста F3040AD9
CRC копии F3040AD9
Трек не обнаружен в базе AccurateRip
Копирование... OK

Трек 2

Имя файла d:My DocumentsErroll Garner 1958CD 102.Erroll Garner-I love Paris.wav

Длина предзазора 0:00:03.37

Пиковый уровень 87.8 %
Качество трека 100.0 %
CRC теста 69B840BC
CRC копии 69B840BC
Трек не обнаружен в базе AccurateRip
Копирование... OK

Трек 3

Имя файла d:My DocumentsErroll Garner 1958CD 103.Erroll Garner-French Doll.wav

Длина предзазора 0:00:02.82

Пиковый уровень 85.4 %
Качество трека 100.0 %
CRC теста FF8EFD12
CRC копии FF8EFD12
Трек не обнаружен в базе AccurateRip
Копирование... OK

Трек 4

Имя файла d:My DocumentsErroll Garner 1958CD 104.Erroll Garner-Don't look for me.wav

Длина предзазора 0:00:03.42

Пиковый уровень 88.4 %
Качество трека 99.9 %
CRC теста 3E804830
CRC копии 3E804830
Трек не обнаружен в базе AccurateRip
Копирование... OK

Трек 5

Имя файла d:My DocumentsErroll Garner 1958CD 105.Erroll Garner-Louise.wav

Длина предзазора 0:00:02.82

Пиковый уровень 92.5 %
Качество трека 100.0 %
CRC теста D7D108D0
CRC копии D7D108D0
Трек не обнаружен в базе AccurateRip
Копирование... OK

Трек 6

Имя файла d:My DocumentsErroll Garner 1958CD 106.Erroll Garner-Farewell to Paris.wav

Длина предзазора 0:00:03.30

Пиковый уровень 72.2 %
Качество трека 100.0 %
CRC теста 7781A30E
CRC копии 7781A30E
Трек не обнаружен в базе AccurateRip
Копирование... OK

Трек 7

Имя файла d:My DocumentsErroll Garner 1958CD 107.Erroll Garner-Left Bank Swing.wav

Длина предзазора 0:00:03.22

Пиковый уровень 84.2 %
Качество трека 100.0 %
CRC теста B9DB848C
CRC копии B9DB848C
Трек не обнаружен в базе AccurateRip
Копирование... OK

Трек 8

Имя файла d:My DocumentsErroll Garner 1958CD 108.Erroll Garner-Cote d'Azur.wav

Длина предзазора 0:00:04.10

Пиковый уровень 79.3 %
Качество трека 99.9 %
CRC теста B3B090DE
CRC копии B3B090DE
Трек не обнаружен в базе AccurateRip
Копирование... OK

Ни одного трека нет в базе AccurateRip

Ошибок не произошло

Конец отчёта

скрытый текст

Exact Audio Copy V0.99 prebeta 5 from 4. May 2009

Отчёт EAC об извлечении, выполненном 31. марта 2010, 15:30

Erroll Garner / Paris Impressions Vol.2

Дисковод: SONY DVD RW DRX-S70U Adapter: 2 ID: 0

Режим чтения : Достоверность
Использование точного потока : Да
Отключение кэша аудио : Да
Использование указателей C2 : Нет

Коррекция смещения при чтении : 48
Способность читать области Lead-in и Lead-out : Нет
Заполнение пропущенных сэмплов тишиной : Да
Удаление блоков с тишиной в начале и конце : Нет
При вычислениях CRC использовались нулевые сэмплы : Да
Интерфейс : Встроенный Win32-интерфейс для Win NT/2000
Обработка зазоров : Добавлено к предыдущему треку

Выходной формат : Пользовательский кодировщик
Выбранный битрейт : 768 kBit/s
Качество : Высокий
Добавление ID3-тэга : Нет
Утилита сжатия : C:Program FilesExact Audio CopyFLACFLAC.EXE
Дополнительные параметры : -6 -V -T "ARTIST=%a" -T "TITLE=%t" -T "ALBUM=%g" -T "DATE=%y" -T "TRACKNUMBER=%n" -T "GENRE=%m" -T "COMMENT=%e" %s -o %d

TOC извлечённого CD

Трек | Старт | Длительность | Начальный сектор | Конечный сектор


1 | 0:00.00 | 4:18.35 | 0 | 19384
2 | 4:18.35 | 8:48.27 | 19385 | 59011
3 | 13:06.62 | 6:02.00 | 59012 | 86161
4 | 19:08.62 | 4:27.05 | 86162 | 106191
5 | 23:35.67 | 3:17.10 | 106192 | 120976
6 | 26:53.02 | 6:06.63 | 120977 | 148489
7 | 32:59.65 | 4:39.27 | 148490 | 169441
8 | 37:39.17 | 5:36.08 | 169442 | 194649
9 | 43:15.25 | 5:08.42 | 194650 | 217791
10 | 48:23.67 | 6:52.73 | 217792 | 248764

Трек 1

Имя файла d:My DocumentsErroll Garner 1958CD 201.Erroll Garner-La Vie En Rose.wav

Длина предзазора 0:00:02.00

Пиковый уровень 81.6 %
Качество трека 100.0 %
CRC теста EC485F3B
CRC копии EC485F3B
Трек не обнаружен в базе AccurateRip
Копирование... OK

Трек 2

Имя файла d:My DocumentsErroll Garner 1958CD 202.Erroll Garner-Paris Midnight.wav

Длина предзазора 0:00:03.86

Пиковый уровень 92.4 %
Качество трека 100.0 %
CRC теста BE06ED95
CRC копии BE06ED95
Трек не обнаружен в базе AccurateRip
Копирование... OK

Трек 3

Имя файла d:My DocumentsErroll Garner 1958CD 203.Erroll Garner-The French Touch.wav

Длина предзазора 0:00:03.56

Пиковый уровень 94.5 %
Качество трека 100.0 %
CRC теста B4B15D11
CRC копии B4B15D11
Трек не обнаружен в базе AccurateRip
Копирование... OK

Трек 4

Имя файла d:My DocumentsErroll Garner 1958CD 204.Erroll Garner-Paris Bounce.wav

Длина предзазора 0:00:03.40

Пиковый уровень 85.3 %
Качество трека 100.0 %
CRC теста 917AF52D
CRC копии 917AF52D
Трек не обнаружен в базе AccurateRip
Копирование... OK

Трек 5

Имя файла d:My DocumentsErroll Garner 1958CD 205.Erroll Garner-Paris Blues.wav

Длина предзазора 0:00:04.06

Пиковый уровень 97.9 %
Качество трека 100.0 %
CRC теста A5656B35
CRC копии A5656B35
Трек не обнаружен в базе AccurateRip
Копирование... OK

Трек 6

Имя файла d:My DocumentsErroll Garner 1958CD 206.Erroll Garner-MyMan.wav

Длина предзазора 0:00:03.93

Пиковый уровень 77.5 %
Качество трека 100.0 %
CRC теста 1182D193
CRC копии 1182D193
Трек не обнаружен в базе AccurateRip
Копирование... OK

Трек 7

Имя файла d:My DocumentsErroll Garner 1958CD 207.Erroll Garner-La Petite Manbo.wav

Длина предзазора 0:00:03.06

Пиковый уровень 84.9 %
Качество трека 100.0 %
CRC теста 0DF48459
CRC копии 0DF48459
Трек не обнаружен в базе AccurateRip
Копирование... OK

Трек 8

Имя файла d:My DocumentsErroll Garner 1958CD 208.Erroll Garner-Tha Last Time I Saw Paris.wav

Длина предзазора 0:00:04.00

Пиковый уровень 67.8 %
Качество трека 100.0 %
CRC теста D685F046
CRC копии D685F046
Трек не обнаружен в базе AccurateRip
Копирование... OK

Трек 9

Имя файла d:My DocumentsErroll Garner 1958CD 209.Erroll Garner-When Paris Cries.wav

Длина предзазора 0:00:03.33

Пиковый уровень 88.3 %
Качество трека 100.0 %
CRC теста 82875CB0
CRC копии 82875CB0
Трек не обнаружен в базе AccurateRip
Копирование... OK

Трек 10

Имя файла d:My DocumentsErroll Garner 1958CD 210.Erroll Garner-Moroccan Quarter.wav

Длина предзазора 0:00:04.40

Пиковый уровень 96.2 %
Качество трека 100.0 %
CRC теста B647FDBF
CRC копии B647FDBF
Трек не обнаружен в базе AccurateRip
Копирование... OK

Ни одного трека нет в базе AccurateRip

Ошибок не произошло

Конец отчёта

скрытый текст

скрытый текст

AUDIOCHECKER v2.0 beta (build 457) - by Dester - [email protected]
~~~~~~~~~~~~~~~~~~~~~~~~~~~~~~~~~~
-=== DO NOT EDIT THIS FILE! ===-

Путь: ...CD 1

1 -=- 01.Erroll Garner-The song from Moulin Rouge.flac -=- CDDA (100%)
2 -=- 02.Erroll Garner-I love Paris.flac -=- CDDA (99%)
3 -=- 03.Erroll Garner-French Doll.flac -=- CDDA (100%)
4 -=- 04.Erroll Garner-Don't look for me.flac -=- CDDA (100%)
5 -=- 05.Erroll Garner-Louise.flac -=- CDDA (100%)
6 -=- 06.Erroll Garner-Farewell to Paris.flac -=- CDDA (100%)
7 -=- 07.Erroll Garner-Left Bank Swing.flac -=- CDDA (100%)
8 -=- 08.Erroll Garner-Cote d'Azur.flac -=- CDDA (100%)

Сводка 99,88% CDDA

18348596

скрытый текст

AUDIOCHECKER v2.0 beta (build 457) - by Dester - [email protected]
~~~~~~~~~~~~~~~~~~~~~~~~~~~~~~~~~~
-=== НЕ РЕДАКТИРУЙТЕ ЭТОТ ФАЙЛ! ===-

Путь: ...CD 2

01 -=- 01.Erroll Garner-La Vie En Rose.flac -=- CDDA (99%)
02 -=- 02.Erroll Garner-Paris Midnight.flac -=- CDDA (100%)
03 -=- 03.Erroll Garner-The French Touch.flac -=- CDDA (100%)
04 -=- 04.Erroll Garner-Paris Bounce.flac -=- CDDA (100%)
05 -=- 05.Erroll Garner-Paris Blues.flac -=- CDDA (100%)
06 -=- 06.Erroll Garner-MyMan.flac -=- CDDA (100%)
07 -=- 07.Erroll Garner-La Petite Manbo.flac -=- CDDA (99%)
08 -=- 08.Erroll Garner-Tha Last Time I Saw Paris.flac -=- CDDA (100%)
09 -=- 09.Erroll Garner-When Paris Cries.flac -=- CDDA (100%)
10 -=- 10.Erroll Garner-Moroccan Quarter.flac -=- CDDA (100%)

Сводка 99,80% CDDA

209027412

скрытый текст

скрытый текст

REM GENRE Jazz
REM DATE 1958
REM DISCID 5C0A9C08
REM COMMENT "ExactAudioCopy v0.99pb5"
PERFORMER "Erroll Garner"
TITLE "Paris Impressions"
FILE "01.Erroll Garner-The song from Moulin Rouge.wav" WAVE
TRACK 01 AUDIO
TITLE "The song from Moulin Rouge"
PERFORMER "Erroll Garner"
INDEX 01 00:00:00
TRACK 02 AUDIO
TITLE "I love Paris"
PERFORMER "Erroll Garner"
INDEX 00 03:30:42
FILE "02.Erroll Garner-I love Paris.wav" WAVE
INDEX 01 00:00:00
TRACK 03 AUDIO
TITLE "French Doll"
PERFORMER "Erroll Garner"
INDEX 00 05:04:70
FILE "03.Erroll Garner-French Doll.wav" WAVE
INDEX 01 00:00:00
TRACK 04 AUDIO
TITLE "Don't look for me"
PERFORMER "Erroll Garner"
INDEX 00 05:47:53
FILE "04.Erroll Garner-Don't look for me.wav" WAVE
INDEX 01 00:00:00
TRACK 05 AUDIO
TITLE "Louise"
PERFORMER "Erroll Garner"
INDEX 00 08:01:23
FILE "05.Erroll Garner-Louise.wav" WAVE
INDEX 01 00:00:00
TRACK 06 AUDIO
TITLE "Farewell to Paris"
PERFORMER "Erroll Garner"
INDEX 00 04:08:35
FILE "06.Erroll Garner-Farewell to Paris.wav" WAVE
INDEX 01 00:00:00
TRACK 07 AUDIO
TITLE "Left Bank Swing"
PERFORMER "Erroll Garner"
INDEX 00 07:18:00
FILE "07.Erroll Garner-Left Bank Swing.wav" WAVE
INDEX 01 00:00:00
TRACK 08 AUDIO
TITLE "Cote d'Azur"
PERFORMER "Erroll Garner"
INDEX 00 05:40:60
FILE "08.Erroll Garner-Cote d'Azur.wav" WAVE
INDEX 01 00:00:00

скрытый текст

REM GENRE Jazz
REM DATE 1958
REM DISCID 870CF40A
REM COMMENT "ExactAudioCopy v0.99pb5"
PERFORMER "Erroll Garner"
TITLE "Paris Impressions Vol.2"
FILE "01.Erroll Garner-La Vie En Rose.wav" WAVE
TRACK 01 AUDIO
TITLE "La Vie En Rose"
PERFORMER "Erroll Garner"
INDEX 01 00:00:00
TRACK 02 AUDIO
TITLE "Paris Midnight"
PERFORMER "Erroll Garner"
INDEX 00 04:14:45
FILE "02.Erroll Garner-Paris Midnight.wav" WAVE
INDEX 01 00:00:00
TRACK 03 AUDIO
TITLE "The French Touch"
PERFORMER "Erroll Garner"
INDEX 00 08:44:60
FILE "03.Erroll Garner-The French Touch.wav" WAVE
INDEX 01 00:00:00
TRACK 04 AUDIO
TITLE "Paris Bounce"
PERFORMER "Erroll Garner"
INDEX 00 05:58:45
FILE "04.Erroll Garner-Paris Bounce.wav" WAVE
INDEX 01 00:00:00
TRACK 05 AUDIO
TITLE "Paris Blues"
PERFORMER "Erroll Garner"
INDEX 00 04:23:00
FILE "05.Erroll Garner-Paris Blues.wav" WAVE
INDEX 01 00:00:00
TRACK 06 AUDIO
TITLE "MyMan"
PERFORMER "Erroll Garner"
INDEX 00 03:13:15
FILE "06.Erroll Garner-MyMan.wav" WAVE
INDEX 01 00:00:00
TRACK 07 AUDIO
TITLE "La Petite Manbo"
PERFORMER "Erroll Garner"
INDEX 00 06:03:58
FILE "07.Erroll Garner-La Petite Manbo.wav" WAVE
INDEX 01 00:00:00
TRACK 08 AUDIO
TITLE "Tha Last Time I Saw Paris"
PERFORMER "Erroll Garner"
INDEX 00 04:35:27
FILE "08.Erroll Garner-Tha Last Time I Saw Paris.wav" WAVE
INDEX 01 00:00:00
TRACK 09 AUDIO
TITLE "When Paris Cries"
PERFORMER "Erroll Garner"
INDEX 00 05:32:58
FILE "09.Erroll Garner-When Paris Cries.wav" WAVE
INDEX 01 00:00:00
TRACK 10 AUDIO
TITLE "Moroccan Quarter"
PERFORMER "Erroll Garner"
INDEX 00 05:04:12
FILE "10.Erroll Garner-Moroccan Quarter.wav" WAVE
INDEX 01 00:00:00


More at ibit.to
And ibit.uno
And ibit.ws

Comments

9 years ago

Конечно, не зря! Эти диски я слушал на виниле, потом они как-то потерялись, но я не забывал их. Они и сегодня слушаются очень хорошо. На "all music"поместили не очень умную рецензию на них, но это никому не мешает.Из старого еще бы Клавир и Гольдберговские Джона Льюиса в хорошем качестве. То, что здесь на торренте выложено - не годится. И Брубековские "Джазовые впечатления от США", но этот диск еще не оцифрован.Еще раз спасибо!

9 years ago

sucher08 писал(а): И Брубековские "Джазовые впечатления от США", но этот диск еще не оцифрован.Еще раз спасибо! Ну почему же, оцифрован:

9 years ago

Спасибо за подсказку. Я еще не видел этого. Там, кстати, указано:"Product Description This release presents the complete long unavailable original studio album Jazz Impressions of U.S.A. (1957) by the Dave Brubeck Quartet for the first time ever on CD. "

Files

CD 1Erroll Garner - Paris Impressions.log 4.5 kB
CD 205.Erroll Garner-Paris Blues.flac 20 MB
CD 102.Erroll Garner-I love Paris.flac 26 MB
CD 107.Erroll Garner-Left Bank Swing.flac 28 MB
CD 202.Erroll Garner-Paris Midnight.flac 43 MB
CD 207.Erroll Garner-La Petite Manbo.flac 25 MB
CD 201.Erroll Garner-La Vie En Rose.flac 21 MB
CD 209.Erroll Garner-When Paris Cries.flac 32 MB
CD 2audiochecker.log 812 B
CD 1Paris Impressions.cue 1.5 kB
CD 101.Erroll Garner-The song from Moulin Rouge.flac 19 MB
CD 106.Erroll Garner-Farewell to Paris.flac 34 MB
CD 2Paris Impressions Vol.2 1.8 kB
CD 104.Erroll Garner-Don't look for me.flac 50 MB
CD 2Erroll Garner - Paris Impressions Vol.2.m3u 384 B
CD 208.Erroll Garner-Tha Last Time I Saw Paris.flac 26 MB
CD 206.Erroll Garner-MyMan.flac 29 MB
CD 1Erroll Garner - Paris Impressions.m3u 307 B
CD 105.Erroll Garner-Louise.flac 21 MB
CD 103.Erroll Garner-French Doll.flac 30 MB
CD 108.Erroll Garner-Cote d'Azur.flac 34 MB
CD 2Erroll Garner - Paris Impressions Vol.2.log 5.3 kB
CD 1audiochecker.log 677 B
CD 203.Erroll Garner-The French Touch.flac 30 MB
CD 204.Erroll Garner-Paris Bounce.flac 23 MB
CD 210.Erroll Garner-Moroccan Quarter.flac 36 MB

Stream

Downloading Seeding Erroll Garner 1958 from to 0 peers.
of
0 b/s / ↗0 b/s