• 0
  • 0
  • done
Anonymous Download
  • Eric Clapton - The Best of Eric Clapton (1991) [FLAC] (Polydor)
  • 470 MB
  • Vadimrad
  • Eric Clapton Best 1991 FLAC Polydor
  • Зарубежный Rock
Warning! Use a VPN When Downloading Torrents!
Your IP Address is ,
Your Internet Provider can see when you download torrents! Hide your IP ADDRESS with a VPN
We strongly recommend Trust.Zone VPN to hide your torrenting. It's FREE!
DOWNLOAD VPN

Description

Eric Clapton - The Best of Eric Clapton

image

Страна : USA

Жанр : PopMusic/soul

Год выпуска : 1991

Формат : FLAC (tracks)

Продолжительность : 01:07:29

Трэклист :
1. 01 - Layla (7:10)
2. 02 - Badge (2:43)
3. 03 - I Feel Free (2:54)
4. 04 - Sunshine of Your Love (4:13)
5. 05 - Crossroads (4:13)
6. 06 - Strange Brew (2:48)
7. 07 - White Room (5:01)
8. 08 - Cocaine (3:35)
9. 09 - I Shot The Sheriff (4:23)
10. 10 - After Midnight (3:11)
11. 11 - Swing Low, Sweet Chariot (3:28)
12. 12 - Lay Down Sally (3:51)
13. 13 - Knockin' On Heaven's Door (4:24)
14. 14 - Wonderful Tonight (3:41)
15. 15 - Let It Grow
16. 16 - Promises
17. 17 - Bell Bottom Blues

скрытый текст

EAC extraction logfile from 24. September 2006, 14:58 for CD
Eric Clapton / The Best of Eric Clapton

Used drive : SONY CD-RW CRX230ED Adapter: 3 ID: 0
Read mode : Secure with NO C2, accurate stream, disable cache
Read offset correction : 6
Overread into Lead-In and Lead-Out : No

Used output format : Internal WAV Routines
44.100 Hz; 16 Bit; Stereo

Other options :
Fill up missing offset samples with silence : Yes
Delete leading and trailing silent blocks : No
Native Win32 interface for Win NT & 2000

Track 1
Filename C:Documents and SettingsWindows XpMy DocumentsMy Music01 - Layla.wav

Pre-gap length 0:00:02.00

Peak level 79.0 %
Track quality 99.9 %
Test CRC CDFED007
Copy CRC CDFED007
Copy OK

Track 2
Filename C:Documents and SettingsWindows XpMy DocumentsMy Music02 - Badge.wav

Pre-gap length 0:00:00.50

Peak level 92.4 %
Track quality 99.9 %
Test CRC EC2FC813
Copy CRC EC2FC813
Copy OK

Track 3
Filename C:Documents and SettingsWindows XpMy DocumentsMy Music03 - I Feel Free.wav

Pre-gap length 0:00:00.53

Peak level 64.9 %
Track quality 100.0 %
Test CRC CFA945D4
Copy CRC CFA945D4
Copy OK

Track 4
Filename C:Documents and SettingsWindows XpMy DocumentsMy Music04 - Sunshine of Your Love.wav

Pre-gap length 0:00:00.09

Peak level 86.9 %
Track quality 99.9 %
Test CRC F6D0758B
Copy CRC F6D0758B
Copy OK

Track 5
Filename C:Documents and SettingsWindows XpMy DocumentsMy Music05 - Crossroads.wav

Pre-gap length 0:00:01.69

Peak level 93.7 %
Track quality 100.0 %
Test CRC D3DCFCD0
Copy CRC D3DCFCD0
Copy OK

Track 6
Filename C:Documents and SettingsWindows XpMy DocumentsMy Music06 - Strange Brew.wav

Peak level 100.0 %
Track quality 100.0 %
Test CRC 5C7B90EC
Copy CRC 5C7B90EC
Copy OK

Track 7
Filename C:Documents and SettingsWindows XpMy DocumentsMy Music07 - White Room.wav

Pre-gap length 0:00:02.00

Peak level 90.3 %
Track quality 99.9 %
Test CRC 4CC6B39E
Copy CRC 4CC6B39E
Copy OK

Track 8
Filename C:Documents and SettingsWindows XpMy DocumentsMy Music08 - Cocaine.wav

Pre-gap length 0:00:03.60

Peak level 96.6 %
Track quality 99.9 %
Test CRC 7FE28302
Copy CRC 7FE28302
Copy OK

Track 9
Filename C:Documents and SettingsWindows XpMy DocumentsMy Music09 - I Shot The Sheriff.wav

Peak level 94.1 %
Track quality 100.0 %
Test CRC E668DB5F
Copy CRC E668DB5F
Copy OK

Track 10
Filename C:Documents and SettingsWindows XpMy DocumentsMy Music10 - After Midnight.wav

Pre-gap length 0:00:00.37

Peak level 90.3 %
Track quality 100.0 %
Test CRC 4DA5F439
Copy CRC 4DA5F439
Copy OK

Track 11
Filename C:Documents and SettingsWindows XpMy DocumentsMy Music11 - Swing Low, Sweet Chariot.wav

Peak level 100.0 %
Track quality 100.0 %
Test CRC E5E165CD
Copy CRC E5E165CD
Copy OK

Track 12
Filename C:Documents and SettingsWindows XpMy DocumentsMy Music12 - Lay Down Sally.wav

Pre-gap length 0:00:00.46

Peak level 92.9 %
Track quality 100.0 %
Test CRC 574F7102
Copy CRC 574F7102
Copy OK

Track 13
Filename C:Documents and SettingsWindows XpMy DocumentsMy Music13 - Knockin' On Heaven's Door.wav

Pre-gap length 0:00:00.84

Peak level 100.0 %
Track quality 100.0 %
Test CRC 55B7FF05
Copy CRC 55B7FF05
Copy OK

Track 14
Filename C:Documents and SettingsWindows XpMy DocumentsMy Music14 - Wonderful Tonight.wav

Pre-gap length 0:00:00.66

Peak level 100.0 %
Track quality 100.0 %
Test CRC 167C4B85
Copy CRC 167C4B85
Copy OK

Track 15
Filename C:Documents and SettingsWindows XpMy DocumentsMy Music15 - Let It Grow.wav

Peak level 95.3 %
Track quality 100.0 %
Test CRC 2AA2A80F
Copy CRC 2AA2A80F
Copy OK

Track 16
Filename C:Documents and SettingsWindows XpMy DocumentsMy Music16 - Promises.wav

Pre-gap length 0:00:00.93

Peak level 97.7 %
Track quality 100.0 %
Test CRC BD1AF296
Copy CRC BD1AF296
Copy OK

Track 17
Filename C:Documents and SettingsWindows XpMy DocumentsMy Music17 - Bell Bottom Blues.wav

Pre-gap length 0:00:00.44

Peak level 100.0 %
Track quality 100.0 %
Test CRC 6B7F0930
Copy CRC 6B7F0930
Copy OK

No errors occured

End of status report


More at ibit.to
And ibit.uno
And ibit.ws

Comments

12 years ago

Как CLAPTON попал в раздел попмузыки? Он,конечно, популярный, однако,мы,чукчи, всегда слушаем его ввиде блюза.

12 years ago

Johansen писал(а): Он,конечно, популярный, однако,мы,чукчи, всегда слушаем его ввиде блюза. Vadimrad, спасибо за раздачу!

11 years ago

эээ народ а что это за формат? У меня ничего его не понимает... =

10 years ago

скачал сегодня, послушал, и че-то звук (на мой слух) не понравился, решил проверить с помощью Tau Analyzer, и оказалось не зря... интересные результаты для "The Best of Eric Clapton" почему-то у всех треков обрезаны частоты, приведу в качестве примера результаты для первых семи, остальные аналогичны... трек №1 трек №2 трек №3 трек №4 трек №5 трек №6 трек №7 хотя диск и определяется как СD, а не как mpeg интересно это студийный косяк? для сравнения приведу результаты проверки для этой раздачи, взят для теста 3й диск результаты для "Eric Clapton - Crossroads 2" отчет спектр №1 спектр для трека №3 трек №9 разница между спектрами релизов видна невооруженным глазом, во втором случае точно лосслесс какие мысли по этому поводу?

10 years ago

соображения такие что диск пиратка, вот и все

Files

Eric Clapton - The Best of Eric Clapton.m3u 1.1 kB
FLACS01 - Layla.flac [44.25 MB]02 - Badge.flac [16.93 MB]03 - I Feel Free.flac [18.54 MB]04 - Sunshine of Your Love.flac [25.72 MB]05 - Crossroads.fla 32 MB
01 - Layla.flac 44 MB
02 - Badge.flac 17 MB
03 - I Feel Free.flac 18 MB
04 - Sunshine of Your Love.flac 26 MB
05 - Crossroads.flac 29 MB
06 - Strange Brew.flac 18 MB
07 - White Room.flac 33 MB
08 - Cocaine.flac 23 MB
09 - I Shot The Sheriff.flac 29 MB
10 - After Midnight.flac 22 MB
11 - Swing Low, Sweet Chariot.flac 22 MB
12 - Lay Down Sally.flac 22 MB
13 - Knockin' On Heaven's Door.flac 29 MB
14 - Wonderful Tonight.flac 23 MB
15 - Let It Grow.flac 33 MB
16 - Promises.flac 18 MB
17 - Bell Bottom Blues.flac 32 MB
Fingerprint.txt -
ScansBack - Front.png [6.46 MB]CDLABEL.png [2.23 MB]Outside Tray.png [3.18 MB]Pg1 - Pg2.png [6.53 MB]Pg3 - Pg4.png [7.70 MB]Pg5 - Pg6.png 7.1 MB
Back - Front.png 6.5 MB
CDLABEL.png 2.2 MB
Outside Tray.png 3.2 MB
Pg1 - Pg2.png 6.5 MB
Pg3 - Pg4.png 7.7 MB
Pg5 - Pg6.png 7.1 MB
The Best of Eric Clapton.CUE 2.7 kB
The Best of Eric Clapton.log 4.8 kB

Stream

Downloading Seeding Eric Clapton - The Best of Eric Clapton (1991) [FLAC] (Polydor) from to 0 peers.
of
0 b/s / ↗0 b/s