• 45
  • 3
  • done
Download
  • Eric Clapton - Slowhand (1977) (PBTHAL LP 24-96) [FLAC]
  • 793 MB
  • vtwin88cube
  • Eric Clapton Slowhand 1977 PBTHAL FLAC
  • Unknown/NA
  • FLAC

Description

Eric Clapton
Slowhand (1977)
FLAC LOSSLESS 24bit-96kHz
TML PBTHAL Vinyl Rip


allmusic.com...

After the guest-star-drenched No Reason to Cry failed to make much of an impact commercially, Eric Clapton returned to using his own band for Slowhand. The difference is substantial -- where No Reason to Cry struggled hard to find the right tone, Slowhand opens with the relaxed, bluesy shuffle of J.J. Cale's "Cocaine" and sustains it throughout the course of the album. Alternating between straight blues ("Mean Old Frisco"), country ("Lay Down Sally"), mainstream rock ("Cocaine," "The Core"), and pop ("Wonderful Tonight"), Slowhand doesn't sound schizophrenic because of the band's grasp of the material. This is laid-back virtuosity -- although Clapton and his band are never flashy, their playing is masterful and assured. That assurance and the album's eclectic material make Slowhand rank with 461 Ocean Boulevard as Eric Clapton's best albums.


foobar2000 1.4.3 / Dynamic Range Meter 1.1.1
log date: 2021-01-10 08:10:47

--------------------------------------------------------------------------------
Analyzed: Eric Clapton / Slowhand
--------------------------------------------------------------------------------

DR Peak RMS Duration Track
--------------------------------------------------------------------------------
DR15 -0.70 dB -18.39 dB 3:42 01-Cocaine
DR15 -2.79 dB -20.66 dB 3:45 02-Wonderful Tonight
DR14 -2.79 dB -18.99 dB 3:56 03-Lay Down Sally
DR14 -1.12 dB -19.20 dB 4:02 04-Next Time You See Her
DR14 -4.10 dB -20.70 dB 2:33 05-We're All The Way
DR13 -4.02 dB -18.26 dB 8:45 06-The Core
DR14 -2.99 dB -19.19 dB 3:03 07-May You Never
DR15 -0.70 dB -19.45 dB 4:41 08-Mean Old Frisco
DR16 -0.70 dB -19.64 dB 4:50 09-Peaches And Diesel

Number of tracks: 9
Official DR value: DR14

Samplerate: 96000 Hz
Channels: 2
Bits per sample: 24
Bitrate: 2805 kbps
Codec: FLAC





Support the artists...
buy it if you like it!

Thanks for Seeding!
Cheers! ;)


More at ibit.to
And ibit.uno
And ibit.am
And ibit.ws

Comments

Files

Eric Clapton - Slowhand (1977) (PBTHAL LP 24-96) [FLAC] -
00.-Eric Clapton - Slowhand.m3u 229 B
01.-Cocaine.flac 76 MB
02.-Wonderful Tonight.flac 76 MB
03.-Lay Down Sally.flac 77 MB
04.-Next Time You See Her.flac 84 MB
05.-We're All The Way.flac 49 MB
06.-The Core.flac 180 MB
07.-May You Never.flac 63 MB
08.-Mean Old Frisco.flac 93 MB
09.-Peaches And Diesel.flac 97 MB
DR14.txt 1.3 kB
folder.jpg 73 kB
lineage.txt 433 B

Stream

Downloading Seeding Eric Clapton - Slowhand (1977) (PBTHAL LP 24-96) [FLAC] from to 0 peers.
of
0 b/s / ↗0 b/s