• 2
  • 1
  • done
Anonymous Downloadondemand_video
  • Ender's Game (2013)
  • 4.5 GB
  • thegabru
  • Ender Game 2013
  • English
  • Dubs/Dual Audio
Warning! Use a VPN When Downloading Torrents!
Your IP Address is ,
Your Internet Provider can see when you download torrents! Hide your IP ADDRESS with a VPN
We strongly recommend hide.me VPN to hide your torrenting. It's FREE!
DOWNLOAD VPN
66%

Ender's Game (2013)

  • Science Fiction Action Adventure
  • Based on the classic novel by Orson Scott Card, Ender's Game is the story of the Earth's most gifted children training to defend their homeplanet in the space wars of the future.

    expand_more
    English
  • $110,000,000
  • Description

    Ender's Game (2013) 1080p WEB-DL Hindi DD 5.1Ch - Eng DD 5.1Ch ~ MANN KT 

    image

    General

    Format                                   : Matroska

    Format version                           : Version 4

    File size                                : 4.51 GiB

    Duration                                 : 1 h 53 min

    Overall bit rate mode                    : Variable

    Overall bit rate                         : 5 672 kb/s

    Movie name                               : MANN KT

    Encoded date                             : UTC 2019-07-14 

    Video

    ID                                       : 1

    Format                                   : AVC

    Format/Info                              : Advanced Video Codec

    Format profile                           : [email protected]

    Format settings                          : CABAC / 5 Ref Frames

    Format settings, CABAC                   : Yes

    Format settings, Reference frames        : 5 frames

    Codec ID                                 : V_MPEG4/ISO/AVC

    Duration                                 : 1 h 53 min

    Bit rate mode                            : Variable

    Bit rate                                 : 4 826 kb/s

    Maximum bit rate                         : 40.0 Mb/s

    Width                                    : 1 920 pixels

    Height                                   : 800 pixels

    Display aspect ratio                     : 2.40:1

    Frame rate mode                          : Constant

    Frame rate                               : 23.976 (24000/1001) FPS

    Color space                              : YUV

    Chroma subsampling                       : 4:2:0

    Bit depth                                : 8 bits

    Scan type                                : Progressive

    Bits/(Pixel*Frame)                       : 0.131

    Stream size                              : 3.84 GiB (85%)

    Title                                    : MANN KT

    Language                                 : English

    Default                                  : Yes

    Forced                                   : Yes

    Audio #1

    ID                                       : 2

    Format                                   : AC-3

    Format/Info                              : Audio Coding 3

    Commercial name                          : Dolby Digital

    Codec ID                                 : A_AC3

    Duration                                 : 1 h 53 min

    Bit rate mode                            : Constant

    Bit rate                                 : 384 kb/s

    Channel(s)                               : 2 channels

    Channel layout                           : L R

    Sampling rate                            : 48.0 kHz

    Frame rate                               : 31.250 FPS (1536 SPF)

    Bit depth                                : 16 bits

    Compression mode                         : Lossy

    Stream size                              : 313 MiB (7%)

    Title                                    : MANN KT

    Language                                 : Hindi

    Service kind                             : Complete Main

    Default                                  : Yes

    Forced                                   : Yes

    Audio #2

    ID                                       : 3

    Format                                   : AC-3

    Format/Info                              : Audio Coding 3

    Commercial name                          : Dolby Digital

    Codec ID                                 : A_AC3

    Duration                                 : 1 h 53 min

    Bit rate mode                            : Constant

    Bit rate                                 : 448 kb/s

    Channel(s)                               : 6 channels

    Channel layout                           : L R C LFE Ls Rs

    Sampling rate                            : 48.0 kHz

    Frame rate                               : 31.250 FPS (1536 SPF)

    Bit depth                                : 16 bits

    Compression mode                         : Lossy

    Stream size                              : 365 MiB (8%)

    Title                                    : MANN KT

    Language                                 : English

    Service kind                             : Complete Main

    Default                                  : No

    Forced                                   : No

    Text

    ID                                       : 4

    Format                                   : PGS

    Muxing mode                              : zlib

    Codec ID                                 : S_HDMV/PGS

    Codec ID/Info                            : Picture based subtitle format used on BDs/HD-DVDs

    Duration                                 : 1 h 44 min

    Bit rate                                 : 39.2 kb/s

    Count of elements                        : 3293

    Stream size                              : 29.3 MiB (1%)

    Title                                    : MANN KT

    Language                                 : English

    Default                                  : No

    Forced                                   : No

    SCREENSHOTS

    image

    Enjoy


    More at ibit.to
    And ibit.uno
    And ibit.ws

    Reviews

    Some kind of space Harry Potter in a dull story about doing a genocide US style as if it would be a video game. Boring and with the stupid "we are not so bad" ending to make everybody happy. Still wondering what Harrision Ford and Ben Kingsley are doing in this movie ...

    Comments

    Files

    Ender's Game (2013).mkv 4.5 GB
    Sample.mkv 24 MB

    Stream

    Downloading Seeding Ender's Game (2013) from to 0 peers.
    of
    0 b/s / ↗0 b/s