• 0
  • 0
  • done
Anonymous Download
  • Elephant9 - 2019 - Psychedelic Backfire II (FLAC)
  • 385 MB
  • яоr
  • Elephant9 2019 Psychedelic Backfire FLAC
  • Зарубежный Rock
Warning! Use a VPN When Downloading Torrents!
Your IP Address is ,
Your Internet Provider can see when you download torrents! Hide your IP ADDRESS with a VPN
We strongly recommend Trust.Zone VPN to hide your torrenting. It's FREE!
DOWNLOAD VPN

Description

image

Elephant9

with Reine Fiske

image

Psychedelic Backfire II

image

image

image

• Жанр: Fusion | Jazz Rock

• Носитель:

WEB

• Год издания: 2019

• Издатель: Rune Grammofon

• Страна: Norway

• Аудиокодек: FLAC (*.flac)

• Тип рипа: tracks

• Продолжительность: 01:02:20

• Источник:

internet

• Наличие сканов: front

image

✧ 01 - You Are The Sunshine Of My Life

(00:14:10)

✧ 02 - SkinkFugl Fonix

(00:14:05)

✧ 03 - Habanera Rocket

(00:15:18)

✧ 04 - Freedom's ChildrenJohn Tinnick

(00:18:46)



• Лог DRM •

`foobar2000 1.4.2 / Dynamic Range Meter 1.1.1
log date: 2019-06-01 14:58:21


Analyzed: Elephant9, Reine Fiske / Psychedelic Backfire II
DR Peak RMS Duration Track

DR6 -0.99 dB -9.87 dB 14:11 01-You Are The Sunshine Of My Life
DR6 -0.98 dB -7.75 dB 14:05 02-Skink/Fugl Fønix
DR6 -0.98 dB -9.19 dB 15:19 03-Habanera Rocket

DR6 -0.95 dB -8.89 dB 18:46 04-Freedom's Children/John Tinnick

Number of tracks: 4
Official DR value: DR6

Samplerate: 44100 Hz
Channels: 2
Bits per sample: 16
Bitrate: 884 kbps
Codec: FLAC
================================================================================ `


• Лог проверки качества •

`-----------------------

DON'T MODIFY THIS FILE


PERFORMER: auCDtect Task Manager, ver. 1.6.0 RC1 build 1.6.0.1
Copyright (c) 2008-2010 y-soft. All rights reserved
http://y-soft.org

ANALYZER: auCDtect: CD records authenticity detector, version 0.8.2
Copyright (c) 2004 Oleg Berngardt. All rights reserved.
Copyright (c) 2004 Alexander Djourik. All rights reserved.

FILE: 04 - Freedom's ChildrenJohn Tinnick.flac
Size: 124743253 Hash: 72B0D090F69CE54C935D5E86C1FA9360 Accuracy: -m8
Conclusion: CDDA 100%
Signature: 6C5EE8983844324819526141175688471B76F4EA
FILE: 03 - Habanera Rocket.flac
Size: 97963422 Hash: B465D537E2E07DB38640A64F25E6D2BA Accuracy: -m8
Conclusion: CDDA 99%
Signature: E04DE4685925F97C7094280BF5E5D50302DE3E19
FILE: 02 - SkinkFugl Fonix.flac
Size: 99084565 Hash: 7685742E3A1385C87EE48E42C1020A16 Accuracy: -m8
Conclusion: CDDA 99%
Signature: B1F4232DDB89FC5E9F02A0B26454C6B9AE43D495
FILE: 01 - You Are The Sunshine Of My Life.flac
Size: 81754998 Hash: A197BB8F284C1211198C0A54B4D27162 Accuracy: -m8
Conclusion: CDDA 100%
Signature: 13BF4B2EE709B2DAFCB286370A72AF48ADF048C1 `



• Band •

image

image


More at ibit.to
And ibit.uno
And ibit.ws

Comments

Files

01 - You Are The Sunshine Of My Life.flac 78 MB
04 - Freedom's ChildrenJohn Tinnick.flac 119 MB
03 - Habanera Rocket.flac 93 MB
02 - SkinkFugl Fonix.flac 94 MB
folder.jpg 343 kB

Stream

Downloading Seeding Elephant9 - 2019 - Psychedelic Backfire II (FLAC) from to 0 peers.
of
0 b/s / ↗0 b/s