• 0
  • 0
  • 3,642
  • done
Anonymous Downloadondemand_video
  • Eagoler.Chokh.(2016)-DVD.Rip-x264.AAC.Esubs-1CD-[DDR]
  • 698 MB
  • SaM
  • Eagoler Chokh 2016 x264 Esubs DVD Rip AAC 1CD DDR
  • Bengali/Bangla
  • h.264/x264
Warning! Use a VPN When Downloading Torrents!
Your IP Address is ,
Your Internet Provider can see when you download torrents! Hide your IP ADDRESS with a VPN
We strongly recommend Trust.Zone VPN to hide your torrenting. It's FREE!
DOWNLOAD VPN
80%

Eagoler Chokh (2016)

A detective seeks the truth about the murder of a young woman.

expand_more
Bengali

Description

image

Presenting a DDR Exclusive rip

** Eagoler Chokh(The Eagle's Eye) -(2016)

(A film by Arindam Sil)

Bangla - DVD.Rip - 720x304 (2.35:1)- 698 MB- x.264.AAC - 1 Hrs:57 Min **

image

image

image

image

imageimageimageimage
imageimageimageimage
imageimageimageimage

**The pictures are Thumbnails. Please click on the image to see it in original size.

Please Read Uploader's Notes Below**


Tech Specifications:

General
Format : Matroska

Format version : Version 4 / Version 2

File size : 698 MiB

Duration : 1 h 57 min

Overall bit rate : 833 kb/s

bit rate mode : variable

Writing application : mkvmerge v9.7.1 ('Pandemonium') 64bit

Writing library : libebml v1.3.4 + libmatroska v1.4.5

Video
Format/Info : AVC

Format profile : [email protected]@Main

Codec ID : V_MPEG4/ISO/AVC

Duration : 1 h 57 min

Bit rate : 703 kb/s

Maximum Bit Rate : 17.5 Mb/s

Width : 720 pixels

Height : 304 pixels

Display aspect ratio : 2.35:1

Frame rate mode : Constant

Frame rate : 23.976 FPS

Color space : YUV

Chroma subsampling : 4:2:0

Bit depth : 8 bits

Bits/(Pixel*Frame) : 0.134

Stream size : 589 MiB (78%)

Writing library : x264 core 148 r2744 b97ae06

Audio
Format : AAC

Format/Info : Advanced Audio Codec

Format profile : HE-AAC / LC

Codec ID : A_AAC

Duration : 1 h 57 min

Bit rate : 128 kb/s

Channel(s) : 2 channels

Channel positions : Front: L R

Sampling rate : 48.0 kHz / 24.0 kHz

Frame rate : 23.438 FPS (1024 spf)

Compression mode : Lossy

Delay relative to video : 31 ms

Stream size : 107 MiB (16%)

Language : Bengali

Chapters & Subtitles
Chapters: 17

Subtitles: English (Separate SRT file included in Torrent)

Starring
Saswata Chattopadhyay, Subhrajit Dutta,Joya Ahsan, Payel Sarkar, Anirban Bhattacharya, Gaurav Chakraborty, Arunima Ghosh, Riya Banik, Joydeep Kundu, June Maliah, Ushashi Sengupta

Technical Team
Director: Arindam Sil; Producer: Shree Venkatesh Films; Music: Bickram Ghosh; DOP: Soumik Haldar; Editor: Dujoy Datta Ray:

**Ripped By: Udbuddho **

image

Synopsis:

Based on a novel by the celebrated author Shirshendu Mukherjee, Eagoler Chokh is a tense who-dun-it featuring Sabar Dasgupta, the ace detective of the Kolkata Police.

A woman, Nandidni (Payel Sarkar), is murdered and her friend Shivangi (Joya Ahsan) is shot in the head. Shivangi's husband Bishan (Anirban Bhattacharya)comes home to find them and calls in the police. The local police think it is a simple case of dacoity, but a sub-inspector (Gaurab Chakraborty) is not satisfied. He calls in Detective Inspector Shabor Dasgupta (Saswata Chattopadhyay) who, with his assistant Nandalal (Subhrajeet Dutta) Starts to investigate.

The more Shabor investigates, the more worms spill out of cans. Bishan turns out to be a womaniser and a drunkard, yet a person who seems to attract women of all kinds. He is the prime suspect, but there is also Shyamangi, Shivangi's sister to contend with. Shivangi herself has been keeping secrets and what role does the young Jahnabi, who lives with Shivangi and is her general factotum have to play?

To know that you have to watch Shabor Dasgupta unravel thread after thread of a mystery which apart from everything else requires him to delve deep into the psychology of the criminal..

Uploader's Notes:

A good quality DVD which needed only a slight color correction to remove the excess yellow tint, some sharpening and a little bit of detail enhancing. We are uploading a x264 rip (This one), A x265 tiny rip but of much better quality and a 720p x264 upscale.

A HEVC Tiny.Rip encode and a x264 720p Upscale are to follow

IMDB Link:

http://www.imdb.com/title/tt6158988/

Sample (2 minutes): Download from here

Seeding at 1 GBPS+


More at ibit.to
And ibit.uno
And ibit.ws

Reviews

Comments

Files

Eagoler.Chokh.(2015)-x264.AAC.Esubs-1CD-DDR/Eagoler.Chokh.(2016)-x264.AAC.Esubs-1CD-DDR.mkv 698 MB
Eagoler.Chokh.(2015)-x264.AAC.Esubs-1CD-DDR/Eagoler.Chokh.(2016)-x264.AAC.Esubs-1CD-DDR.srt 100 kB

Stream

Downloading Seeding Eagoler.Chokh.(2016)-DVD.Rip-x264.AAC.Esubs-1CD-[DDR] from to 0 peers.
of
0 b/s / ↗0 b/s