• 1
  • 0
  • 385
  • done
Sponsored Downloadondemand_video
64%

Eagle Eye (2008)

  • Mystery Thriller Action
  • Jerry Shaw and Rachel Holloman are two strangers whose lives are suddenly thrown into turmoil by a mysterious woman they have never met. Threatening their lives and family, the unseen caller uses everyday technology to control their actions and push them into increasing danger. As events escalate, Jerry and Rachel become the country's most-wanted fugitives and must figure out what is happening to them.

    expand_more
    English
  • $10,000,000
  • Description

    http://forum.tntvillage.scambioetico.org/index.php?showtopic=462226

    image

    Eagle Eye (2008)

    image

    Titolo originale: Eagle Eye

    Nazionalità: USA

    Anno: 2008

    Genere: Azione, Thriller

    Regia: D. J. Caruso

    Durata: 118 min

    image

    Shia LaBeouf: Jerry Shaw

    Michelle Monaghan: Rachel Holloman

    Rosario Dawson: Zoe Perez

    Billy Bob Thornton: Agente Thomas Morgan

    Cameron Boyce: Sam Holloman

    Ethan Embry: Agente Toby Grant

    Michael Chiklis: Segretario della Difesa Callister

    Anthony Mackie: William Bowman

    Anthony Azizi: Ranim Khalid

    image

    Jerry Shaw è un giovane spiantato che ha da poco affrontato la morte misteriosa del fratello gemello. Rientrato a casa, riceve la telefonata di una donna, a lui sconosciuta, che lo invita ad uscire immediatamente dalla sua abitazione, perché l'FBI farà presto irruzione. Catturato, il ragazzo verrà accusato di terrorismo. Parallelamente la stessa cosa capita alla madre single Rachel Holloman. Responsabile di tutto ciò è ARIA, un supercomputer creato dal governo per proteggere l'America da ogni nemico.

    Avendo ordinato, settimane prima, il Presidente degli Stati Uniti un raid aereo in un paese afgano, che ha ucciso più innocenti che terroristi, il mondo arabo era insorto con diversi attentati sul suolo americano. Il computer ARIA, il cui unico scopo è la difesa della nazione, aveva dunque valutato che lo stesso Presidente è un pericolo per la nazione, così aveva iniziato le mosse per eliminarlo, servendosi di Rachel (che senza saperlo porterà al parlamento una potentissima bomba che si attiva tramite impulsi sonori) e Jerry (il fratello gemello di questi infatti era uno dei programmatori di ARIA che, avendo scoperto il piano, aveva posto al computer un blocco che solo lui, o una persona identica a lui, potevano togliere)

    Jerry e Rachel si ritroveranno, loro malgrado, coinvolti con i macchinosi piani del computer che ha accesso e usa ogni sorta di macchina per poterli portare avanti, eliminando chiunque si metta sulla sua strada.

    image

    imageimageimageimage
    imageimageimageimage

    image

    [spoiler]

    General

    Unique ID : 190305196941256336593960784073607379312 (0x8F2B729ED664FC31ADC8A785FDDC7970)

    Complete name : E:FILM PRONTI ALLA CONDIVISIONEEagle Eye 1080p.mkv

    Format : Matroska

    Format version : Version 4 / Version 2

    File size : 5.60 GiB

    Duration : 1h 57mn

    Overall bit rate : 6 819 Kbps

    Encoded date : UTC 2015-07-11 12:37:47

    Writing application : mkvmerge v8.1.0 ('Psychedelic Postcard') 64bit

    Writing library : libebml v1.3.1 + libmatroska v1.4.2

    Attachements : cover.png / small_cover.png

    DURATION : 01:56:25.968000000

    NUMBEROFFRAMES : 1396

    NUMBEROFBYTES : 4391133

    STATISTICSWRITING_APP : mkvmerge v8.1.0 ('Psychedelic Postcard') 64bit

    STATISTICSWRITINGDATEUT : 2015-07-11 12:37:47

    STATISTICSTAGS : BPS DURATION NUMBEROFFRAMES NUMBEROFBYTES

    Video

    ID : 1

    Format : AVC

    Format/Info : Advanced Video Codec

    Format profile : [email protected]
    Format settings, CABAC : Yes

    Format settings, ReFrames : 2 frames

    Codec ID : V_MPEG4/ISO/AVC

    Duration : 1h 57mn

    Bit rate : 5 404 Kbps

    Width : 1 920 pixels

    Height : 800 pixels

    Display aspect ratio : 2.40:1

    Frame rate mode : Constant

    Frame rate : 23.976 fps

    Color space : YUV

    Chroma subsampling : 4:2:0

    Bit depth : 8 bits

    Scan type : Progressive

    Bits/(Pixel*Frame) : 0.147

    Stream size : 4.44 GiB (79%)

    Writing library : x264 core

    Language : Italian

    Default : Yes

    Forced : No

    Color range : Limited

    Color primaries : BT.709

    Transfer characteristics : BT.709

    Matrix coefficients : BT.709

    Audio #1

    ID : 2

    Format : AC-3

    Format/Info : Audio Coding 3

    Mode extension : CM (complete main)

    Format settings, Endianness : Big

    Codec ID : A_AC3

    Duration : 1h 57mn

    Bit rate mode : Constant

    Bit rate : 640 Kbps

    Channel(s) : 6 channels

    Channel positions : Front: L C R, Side: L R, LFE

    Sampling rate : 48.0 KHz

    Compression mode : Lossy

    Stream size : 538 MiB (9%)

    Language : Italian

    Default : Yes

    Forced : No

    Audio #2

    ID : 3

    Format : AC-3

    Format/Info : Audio Coding 3

    Mode extension : CM (complete main)

    Format settings, Endianness : Big

    Codec ID : A_AC3

    Duration : 1h 57mn

    Bit rate mode : Constant

    Bit rate : 640 Kbps

    Channel(s) : 6 channels

    Channel positions : Front: L C R, Side: L R, LFE

    Sampling rate : 48.0 KHz

    Compression mode : Lossy

    Stream size : 538 MiB (9%)

    Language : English

    Default : No

    Forced : No

    Text #1

    ID : 4

    Format : VobSub

    Muxing mode : zlib

    Codec ID : S_VOBSUB

    Codec ID/Info : Picture based subtitle format used on DVDs

    Language : Italian

    Default : No

    Forced : No

    Text #2

    ID : 5

    Format : VobSub

    Muxing mode : zlib

    Codec ID : S_VOBSUB

    Codec ID/Info : Picture based subtitle format used on DVDs

    Language : English

    Default : No

    Forced : No

    Text #3

    ID : 6

    Format : VobSub

    Muxing mode : zlib

    Codec ID : S_VOBSUB

    Codec ID/Info : Picture based subtitle format used on DVDs

    Language : German

    Default : No

    Forced : No

    Text #4

    ID : 7

    Format : VobSub

    Muxing mode : zlib

    Codec ID : S_VOBSUB

    Codec ID/Info : Picture based subtitle format used on DVDs

    Language : Spanish

    Default : No

    Forced : No

    Text #5

    ID : 8

    Format : VobSub

    Muxing mode : zlib

    Codec ID : S_VOBSUB

    Codec ID/Info : Picture based subtitle format used on DVDs

    Language : French

    Default : No

    Forced : No

    Text #6

    ID : 9

    Format : VobSub

    Muxing mode : zlib

    Codec ID : S_VOBSUB

    Codec ID/Info : Picture based subtitle format used on DVDs

    Language : Dutch

    Default : No

    Forced : No

    Text #7

    ID : 10

    Format : VobSub

    Muxing mode : zlib

    Codec ID : S_VOBSUB

    Codec ID/Info : Picture based subtitle format used on DVDs

    Language : Danish

    Default : No

    Forced : No

    Text #8

    ID : 11

    Format : VobSub

    Muxing mode : zlib

    Codec ID : S_VOBSUB

    Codec ID/Info : Picture based subtitle format used on DVDs

    Language : Norwegian

    Default : No

    Forced : No

    Text #9

    ID : 12

    Format : VobSub

    Muxing mode : zlib

    Codec ID : S_VOBSUB

    Codec ID/Info : Picture based subtitle format used on DVDs

    Language : Finnish

    Default : No

    Forced : No

    Text #10

    ID : 13

    Format : VobSub

    Muxing mode : zlib

    Codec ID : S_VOBSUB

    Codec ID/Info : Picture based subtitle format used on DVDs

    Language : Swedish

    Default : No

    Forced : No

    Menu

    00:00:00.000 : en:(01)00:00:00:000

    00:05:49.140 : en:(02)00:05:49:140

    00:10:39.555 : en:(03)00:10:39:555

    00:16:26.902 : en:(04)00:16:26:902

    00:19:33.964 : en:(05)00:19:33:964

    00:23:41.753 : en:(06)00:23:41:753

    00:26:22.831 : en:(07)00:26:22:831

    00:31:42.400 : en:(08)00:31:42:400

    00:38:06.492 : en:(09)00:38:06:492

    00:43:23.142 : en:(10)00:43:23:142

    00:46:29.953 : en:(11)00:46:29:953

    00:52:01.243 : en:(12)00:52:01:243

    00:56:03.568 : en:(13)00:56:03:568

    01:00:40.345 : en:(14)01:00:40:345

    01:04:26.654 : en:(15)01:04:26:654

    01:09:07.977 : en:(16)01:09:07:977

    01:15:33.153 : en:(17)01:15:33:153

    01:20:58.770 : en:(18)01:20:58:770

    01:25:43.179 : en:(19)01:25:43:179

    01:32:52.108 : en:(20)01:32:52:108

    01:39:48.399 : en:(21)01:39:48:399

    01:44:35.060 : en:(22)01:44:35:060

    01:48:16.907 : en:(23)01:48:16:907

    01:50:48.391 : en:(24)01:50:48:391

    01:57:34.839 : en:(25)01:57:34:839

    [/spoiler]


    More at ibit.to
    And ibit.uno
    And ibit.ws

    Reviews

    Comments

    Files

    Eagle Eye 1080p.mkv 5.6 GB

    Stream

    Downloading Seeding Eagle Eye (2008), [BDrip 1080p - H264 - Ita Eng Ac3 - MultiSub] TNTvillage by nicola939 from to 0 peers.
    of
    0 b/s / ↗0 b/s