• 18
  • 3
  • 107
  • done
Sponsored Downloadondemand_video
  • Dumplin 2018 1080p NF WEB-DL DD 5.1 x264 [MW]
  • 1.8 GB
  • moviezworldz
  • Dumplin 2018 1080p x264 WEB
  • English
  • HD
71%

Dumplin' (2018)

  • Comedy Drama
  • To prove a point about measuring up and fitting in, Texas teen Willowdean “Dumplin’” Dickson enters a local pageant run by her ex-beauty queen mom.

    expand_more
    English

    Description

    image

    General

    Format : Matroska

    Format version : Version 4 / Version 2

    File size : 1.81 GiB

    Duration : 1 h 50 min

    Overall bit rate : 2 346 kb/s

    Video

    ID : 1

    Format : AVC

    Format/Info : Advanced Video Codec

    Format profile : [email protected]
    Format settings : CABAC / 4 Ref Frames

    Format settings, CABAC : Yes

    Format settings, RefFrames : 4 frames

    Codec ID : V_MPEG4/ISO/AVC

    Duration : 1 h 50 min

    Bit rate : 2 000 kb/s

    Width : 1 920 pixels

    Height : 804 pixels

    Display aspect ratio : 2.40:1

    Frame rate mode : Constant

    Frame rate : 23.976 (24000/1001) FPS

    Color space : YUV

    Chroma subsampling : 4:2:0

    Bit depth : 8 bits

    Scan type : Progressive

    Bits/(Pixel*Frame) : 0.054

    Stream size : 1.51 GiB (84%)

    Writing library : x264 core 155 r2901 7d0ff22

    Default : Yes

    Forced : No

    Audio

    ID : 2

    Format : AC-3

    Format/Info : Audio Coding 3

    Codec ID : A_AC3

    Duration : 1 h 50 min

    Bit rate mode : Constant

    Bit rate : 384 kb/s

    Channel(s) : 6 channels

    Channel positions : Front: L C R, Side: L R, LFE

    Sampling rate : 48.0 kHz

    Frame rate : 31.250 FPS (1536 SPF)

    Bit depth : 16 bits

    Compression mode : Lossy

    Stream size : 303 MiB (16%)

    Language : English

    Service kind : Complete Main

    Default : Yes

    Forced : No

    Quote:

    __

    Text #1

    ID : 3

    Format : UTF-8

    Codec ID : S_TEXT/UTF8

    Codec ID/Info : UTF-8 Plain Text

    Duration : 1 h 49 min

    Bit rate : 74 b/s

    Count of elements : 2048

    Stream size : 59.8 KiB (0%)

    Title : English

    Language : English

    Default : Yes

    Forced : No

    Text #2

    ID : 4

    Format : UTF-8

    Codec ID : S_TEXT/UTF8

    Codec ID/Info : UTF-8 Plain Text

    Duration : 1 h 45 min

    Bit rate : 59 b/s

    Count of elements : 1471

    Stream size : 46.0 KiB (0%)

    Title : French

    Language : French

    Default : No

    Forced : No

    Text #3

    ID : 5

    Format : UTF-8

    Codec ID : S_TEXT/UTF8

    Codec ID/Info : UTF-8 Plain Text

    Duration : 1 h 49 min

    Bit rate : 42 b/s

    Count of elements : 1277

    Stream size : 33.9 KiB (0%)

    Title : Polish

    Language : Polish

    Default : No

    Forced : No

    Text #4

    ID : 6

    Format : UTF-8

    Codec ID : S_TEXT/UTF8

    Codec ID/Info : UTF-8 Plain Text

    Duration : 1 h 45 min

    Bit rate : 55 b/s

    Count of elements : 1473

    Stream size : 42.5 KiB (0%)

    Title : German

    Language : German

    Default : No

    Forced : No __

    Click To View Image

    image
    image
    image
    image
    image
    image


    More at ibit.to
    And ibit.uno
    And ibit.ws

    Reviews

    I did not know anything about the story before I watched the movie. As a life-long Dolly Parton fan, I would have been eager to see it if I had known several characters would idolize her and that Dolly's life and career would serve as an inspiration to all. The movie is a feel-good gem. Danielle MacDonald is a future favorite, and Jennifer Aniston shows real talent in making her cliched character something more. I recommend it to all.

    Comments

    Files

    Dumplin 2018 1080p NF WEB-DL DD 5.1 x264 [MW].mkv 1.8 GB
    Dumplin 2018 1080p NF WEBDL DD 5.1 x264 [MW] -
    Dumplin 2018 1080p NF WEBDL DD 5.1 x264 [MW].mkv 1.8 GB

    Stream

    Downloading Seeding Dumplin 2018 1080p NF WEB-DL DD 5.1 x264 [MW] from to 0 peers.
    of
    0 b/s / ↗0 b/s