• 0
  • 0
  • done
Anonymous Downloadondemand_video
  • Dumbo.2019.DVDRip.XviD.AC3-EVO
  • 1.5 GB
  • seekndstroy
  • Dumbo 2019 DVDRip XviD AC3 EVO
  • English
  • SD/XVID
Warning! Use a VPN When Downloading Torrents!
Your IP Address is ,
Your Internet Provider can see when you download torrents! Hide your IP ADDRESS with a VPN
We strongly recommend Trust.Zone VPN to hide your torrenting. It's FREE!
DOWNLOAD VPN


Description

image

A young elephant| whose oversized ears enable him to fly| helps save a struggling circus| but when the circus plans a new venture| Dumbo and his friends

discover dark secrets beneath its shiny veneer.

Video

ID : 0

Format : MPEG-4 Visual

Format profile : [email protected]

Format settings, BVOP : No

Format settings, QPel : No

Format settings, GMC : No warppoints

Format settings, Matrix : Default (H.263)

Codec ID : XVID

Codec ID/Hint : XviD

Duration : 1 h 51 min

Source duration : 1 h 51 min

Bit rate : 1 400 kb/s

Width : 720 pixels

Height : 384 pixels

Display aspect ratio : 1.85:1

Frame rate : 23.976 (24000/1001) FPS

Color space : YUV

Chroma subsampling : 4:2:0

Bit depth : 8 bits

Scan type : Progressive

Compression mode : Lossy

Bits/(Pixel*Frame) : 0.211

Stream size : 1.09 GiB (75%)

Writing library : XviD 1.1.2 (UTC 2006-11-01)

Audio

ID : 1

Format : AC-3

Format/Info : Audio Coding 3

Commercial name : Dolby Digital

Codec ID : 2000

Duration : 1 h 51 min

Bit rate mode : Constant

Bit rate : 448 kb/s

Channel(s) : 6 channels

Channel layout : L R C LFE Ls Rs

Sampling rate : 48.0 kHz

Frame rate : 31.250 FPS (1536 SPF)

Bit depth : 16 bits

Compression mode : Lossy

Stream size : 359 MiB (24%)

Alignment : Aligned on interleaves

Interleave, duration : 32 ms (0.77 video frame)

Service kind : Complete Main

image

image

image


More at ibit.to
And ibit.uno
And ibit.ws

Comments

Files

Dumbo.2019.DVDRip.XviD.AC3-EVO.avi 1.5 GB
RARBG.txt 31 B

Stream

Downloading Seeding Dumbo.2019.DVDRip.XviD.AC3-EVO from to 0 peers.
of
0 b/s / ↗0 b/s