• 0
  • 0
  • 785
Sponsored Downloadondemand_video
  • Dracula Dead and Loving It(1995)MpEG-4[DaScubaDude}
  • 854 MB
  • dascubadude
  • Dracula Dead Loving 1995 MpEG DaScubaDude
  • English
  • Mp4
58%

Dracula: Dead and Loving It (1995)

  • Comedy Horror
  • When a lawyer shows up at the vampire's doorstep, he falls prey to his charms and joins him in his search for fresh blood. Enter Dr. van Helsing, who may be the only one able to vanquish the count.

    expand_more
    English

    Description

    image
    Dracula: Dead and Loving It (1995)

    PG-13 | 1h 28min | Comedy, Fantasy, Horror | 22 December 1995 (USA)

    Mel Brooks' parody of the classic vampire story and its famous film adaptations.

    Director: Mel Brooks

    Writers: Mel Brooks (screenplay), Rudy De Luca (screenplay) |
    Stars: Leslie Nielsen, Mel Brooks, Peter MacNicol

    General

    Complete name : DraculaD&LIDRACULADEADANDLOVINGIT_Title1.mp4

    Format : MPEG-4

    Format profile : Base Media

    Codec ID : isom (isom/iso2/avc1/mp41)

    File size : 854 MiB

    Duration : 1h 29mn

    Overall bit rate : 1 330 Kbps

    Movie name : DRACULADEADANDLOVINGIT

    Genre : Comedy

    Writing application : Lavf54.6.100

    Video

    ID : 1

    Format : AVC

    Format/Info : Advanced Video Codec

    Format profile : [email protected]
    Format settings, CABAC : No

    Format settings, ReFrames : 6 frames

    Codec ID : avc1

    Codec ID/Info : Advanced Video Coding

    Duration : 1h 29mn

    Bit rate : 1 195 Kbps

    Width : 720 pixels

    Height : 404 pixels

    Display aspect ratio : 16:9

    Frame rate mode : Constant

    Frame rate : 29.970 (30000/1001) fps

    Color space : YUV

    Chroma subsampling : 4:2:0

    Bit depth : 8 bits

    Scan type : Progressive

    Bits/(Pixel*Frame) : 0.137

    Stream size : 767 MiB (90%)

    Audio

    ID : 2

    Format : AAC

    Format/Info : Advanced Audio Codec

    Format profile : LC

    Codec ID : 40

    Duration : 1h 29mn

    Bit rate mode : Constant

    Bit rate : 128 Kbps

    Channel(s) : 2 channels

    Channel positions : Front: L R

    Sampling rate : 44.1 KHz

    Frame rate : 43.066 fps (1024 spf)

    Compression mode : Lossy

    Stream size : 82.2 MiB (10%)

    Default : Yes

    Alternate group : 1


    More at ibit.to
    And ibit.uno
    And ibit.ws

    Reviews

    Most probably my least favourite film, both of Mel Brooks (though I haven't seen 'Life Stinks' yet) and of Leslie Nielsen (though I refuse to watch any other of the post-'Airplane' and 'Naked Gun' knockoffs he's made over the years since), but it still doesn't deserve all the hate. It's STILL at least 50,000 times funnier than Lena Dunham's 'Tiny Furniture' (or about 70% of the so-called contemporary American comedies made these days).

    Comments

    Files

    DRACULA_DEAD_AND_LOVING_IT_Title1.mp4 854 MB

    Stream

    Downloading Seeding Dracula Dead and Loving It(1995)MpEG-4[DaScubaDude} from to 0 peers.
    of
    0 b/s / ↗0 b/s