• 0
  • 0
Sponsored Downloadondemand_video
  • Dracula - Dead And Loving It SweSub DvDRip XviD
  • 700 MB
  • gnv64
  • Dracula Dead Loving SweSub DvDRip XviD
  • English
  • Divx/Xvid
58%

Dracula: Dead and Loving It (1995)

  • Comedy Horror
  • When a lawyer shows up at the vampire's doorstep, he falls prey to his charms and joins him in his search for fresh blood. Enter Dr. van Helsing, who may be the only one able to vanquish the count.

    expand_more
    English

    Description

    image

    Dracula - Dead And Loving It (1995)

    IMDB: http://www.imdb.com/title/tt0112896/
    PG-13 88 min Comedy | Thriller
    Director: Mel Brooks

    Writing credits Mel Brooks,Rudy De Luca,Steve Haberman

    Stars: Leslie Nielsen, Mel Brooks and Peter MacNicol

    Storyline

    Another spoof from the mind of Mel Brooks. This time he's out to poke fun at the Dracula myth. Basically, he took "Bram Stoker's Dracula," gave it a new cast and a new script and made a big joke out of it. The usual, rich English are attacked by Dracula and Dr. Van Helsing is brought in to save the day.

    Video :
    Format : MPEG-4 Visual
    Codec ID : XviD
    Duration : 1h 26mn
    Bit rate : 997 Kbps
    Width : 576 pixels
    Height : 320 pixels
    Display aspect ratio : 16:9
    Frame rate : 25.000 fps
    Resolution : 8 bits
    Scan type : Progressive
    Bits/(Pixel*Frame) : 0.216
    Stream size : 615 MiB (88%)
    Writing library : XviD 1.1.0

    Audio :

    Format : MPEG Audio
    Format version : Version 1
    Format profile : Layer 3
    Mode : Joint stereo
    Codec ID : MP3
    Duration : 1h 26mn
    Bit rate mode : Constant
    Bit rate : 128 Kbps
    Channel(s) : 2 channels
    Sampling rate : 48.0 KHz
    Stream size : 78.9 MiB (11%)
    Writing library : LAME3.97b


    More at ibit.to
    And ibit.uno
    And ibit.ws

    Reviews

    Most probably my least favourite film, both of Mel Brooks (though I haven't seen 'Life Stinks' yet) and of Leslie Nielsen (though I refuse to watch any other of the post-'Airplane' and 'Naked Gun' knockoffs he's made over the years since), but it still doesn't deserve all the hate. It's STILL at least 50,000 times funnier than Lena Dunham's 'Tiny Furniture' (or about 70% of the so-called contemporary American comedies made these days).

    Comments

    Files

    Dracula.Dead.And.Loving.It.SweSub.DvDRip.XviD-Smurfenlars.avi 700 MB

    Stream

    Downloading Seeding Dracula - Dead And Loving It SweSub DvDRip XviD from to 0 peers.
    of
    0 b/s / ↗0 b/s