• 0
  • 0
Anonymous Downloadondemand_video
  • Die.Another.Day.2002.720p.BluRay.H264.AAC-RARBG
  • 1.6 GB
  • 2002 720p BluRay H264 RARBG
  • English,Korean,Cantonese,Spani
  • x264/720
Warning! Use a VPN When Downloading Torrents!
Your IP Address is ,
Your Internet Provider can see when you download torrents! Hide your IP ADDRESS with a VPN
We strongly recommend Trust.Zone VPN to hide your torrenting. It's FREE!
DOWNLOAD VPN
59%

Die Another Day (2002)

  • Adventure Action Thriller
  • Bond takes on a North Korean leader who undergoes DNA replacement procedures that allow him to assume different identities. American agent, Jinx Johnson assists Bond in his attempt to thwart the villain's plans to exploit a satellite that is powered by solar energy.

    expand_more
    English
  • $140,000,000
  • Description

    Pierce Brosnan gives one last mission as James Bond. Starting off in North Korea| Bond is betrayed and captured. 14 months later| Bond is set free| but traded forZao who was captured by MI6. When back in his world| Bond sets off to track down Zao. Bond gets caught up in yet another scheme which sends him to millionaire GustavGraves. Another MI6 agent known as Miranda Frost is also posing as a friend of Graves. Bond is invited to a presentation held by Graves about a satellite found inspace which can project a huge laser beam. Bond must stop this madman with a fellow American agent| known as Jinx. Whilst Bond tries to stop Graves and Zao| will hefinally reveal who betrayed him?

    image

    image

    image

    image

    image

    MediaInfo:

    Video

    ID                                       : 1

    Format                                   : AVC

    Format/Info                              : Advanced Video Codec

    Format profile                           : [email protected]

    Format settings, CABAC                   : Yes

    Format settings, ReFrames                : 4 frames

    Codec ID                                 : avc1

    Codec ID/Info                            : Advanced Video Coding

    Duration                                 : 2h 12mn

    Bit rate                                 : 1 500 Kbps

    Width                                    : 1 280 pixels

    Height                                   : 540 pixels

    Display aspect ratio                     : 2.40:1

    Frame rate mode                          : Constant

    Frame rate                               : 23.976 (23976/1000) fps

    Color space                              : YUV

    Chroma subsampling                       : 4:2:0

    Bit depth                                : 8 bits

    Scan type                                : Progressive

    Bits/(Pixel*Frame)                       : 0.091

    Stream size                              : 1.39 GiB (87%)

    Writing library                          : x264 core 148 r2638M 7599210

    Encoding settings                        : cabac=1 / ref=4 / deblock=1:-1:-1 / analyse=0x3:0x113 / me=umh / subme=9 / psy=1 / psyrd=1.00:0.15 / mixedref=1 / merange=24 / chromame=1 / trellis=2 / 8x8dct=1 / cqm=0 / deadzone=21,11 / fastpskip=1 / chromaqpoffset=-3 / threads=32 / lookaheadthreads=4 / slicedthreads=0 / nr=0 / decimate=1 / interlaced=0 / bluraycompat=0 / constrainedintra=0 / bframes=3 / bpyramid=2 / badapt=2 / bbias=0 / direct=3 / weightb=1 / opengop=0 / weightp=2 / keyint=250 / keyintmin=25 / scenecut=40 / intrarefresh=0 / rclookahead=50 / rc=2pass / mbtree=1 / bitrate=1500 / ratetol=1.0 / qcomp=0.60 / qpmin=0 / qpmax=69 / qpstep=4 / cplxblur=20.0 / qblur=0.5 / vbvmaxrate=31250 / vbvbufsize=31250 / nalhrd=none / filler=0 / ipratio=1.40 / aq=3:1.00

    Encoded date                             : UTC 2016-07-29 04:34:15

    Tagged date                              : UTC 2016-07-29 04:34:15

    Audio

    ID                                       : 2

    Format                                   : AAC

    Format/Info                              : Advanced Audio Codec

    Format profile                           : LC

    Codec ID                                 : 40

    Duration                                 : 2h 12mn

    Bit rate mode                            : Constant

    Bit rate                                 : 224 Kbps

    Channel(s)                               : 2 channels

    Channel(s)_Original                      : 6 channels

    Channel positions                        : Front: L C R, Side: L R, LFE

    Sampling rate                            : 48.0 KHz

    Frame rate                               : 46.875 fps (1024 spf)

    Compression mode                         : Lossy

    Stream size                              : 212 MiB (13%)

    Language                                 : English

    Default                                  : Yes

    Alternate group                          : 1

    Encoded date                             : UTC 2016-07-29 04:34:15

    Tagged date                              : UTC 2016-07-29 04:34:15


    More at ibit.to
    And ibit.uno
    And ibit.ws

    Reviews

    Most definitely the worst 'official' James Bond film I have ever seen (haven't seen 'The World Is Not Enough', 'Quantum of Solace' or 'Spectre' yet) but still has its moments, and like The Rolling Stones or Pink Floyd, even the bad stuff is better than 80% of the other stuff out there. Still I wish it wasn't Brosnan's last one--and though Craig was truly a refreshing change in his realistic tone that hearkened back to the great days of Connery, that too got old, even for the actor himself.

    Comments

    Files

    Die.Another.Day.2002.720p.BluRay.H264.AAC-RARBG.mp4 1.6 GB
    Die.Another.Day.2002.720p.BluRay.H264.AAC-RARBG.nfo 3.9 kB
    RARBG.COM.mp4 993 kB
    RARBG.COM.txt 30 B
    Subs/2_Eng.srt 63 kB
    Subs/3_Spa.srt 57 kB
    Subs/4_Eng.srt 67 kB

    Stream

    Downloading Seeding Die.Another.Day.2002.720p.BluRay.H264.AAC-RARBG from to 0 peers.
    of
    0 b/s / ↗0 b/s