• -
  • -
  • done
  • Diabulus In Musica - 2020 - Euphoric Entropy [Hi-Res]
  • 732 MB
  • andromaxvic
  • Diabulus Musica 2020 Euphoric Entropy Res
  • Hi-Res stereo и многоканальная

Description

Diabulus In Musica - Euphoric Entropy


image

Формат / Источник записи : [TR24][OF]

Наличие водяных знаков : Нет

Год издания : 2020-02-14

Жанр : Symphonic Gothic /Power Metal

Издатель-лейбл : Napalm Records

Продолжительность : 00:56:33

Наличие сканов : Нет

Контейнер : FLAC (*.flac)

Тип рипа : tracks

Разрядность : 24/44.1

Формат : PCM

Количество каналов : 2.0

Источник : интернет

Треклист :

01.

A Lucid Chaos

(1:40)

02.

Race to Equilibrium

(5:03)

03.

Nuevo Rumbo

(4:46)

04.

The Misfit's Swing

(3:45)

05.

In Quest of Sense

(4:31)

06.

Otoi

(5:44)

07.

Blurred Dreams

(5:01)

08.

On the Edge

(4:11)

09.

Our Last Gloomy Dance

(7:28)

10.

One Step Higher

(4:50)

11.

Blind Muse

(5:18)

12.

In the Vortex

(4:16)

Лог проверки качества

`foobar2000 1.5.1 / Замер динамического диапазона (DR) 1.1.1
Дата отчёта: 2020-02-14 05:38:19


Анализ: Diabulus in Musica / Euphonic Entropy
DR Пики RMS Продолжительность трека

DR9 -1.02 дБ -13.26 дБ 1:40 01-A Lucid Chaos
DR5 -0.98 дБ -7.14 дБ 5:03 02-Race to Equilibrium
DR5 -0.98 дБ -7.16 дБ 4:46 03-Nuevo Rumbo
DR5 -0.98 дБ -8.30 дБ 3:45 04-The Misfit's Swing
DR5 -0.99 дБ -7.40 дБ 4:31 05-In Quest of Sense
DR6 -0.99 дБ -8.07 дБ 5:44 06-Otoi
DR6 -0.99 дБ -9.00 дБ 5:01 07-Blurred Dreams
DR6 -0.98 дБ -7.65 дБ 4:11 08-On the Edge
DR6 -0.98 дБ -8.76 дБ 7:28 09-Our Last Gloomy Dance
DR6 -0.99 дБ -7.97 дБ 4:50 10-One Step Higher
DR5 -0.99 дБ -7.61 дБ 5:18 11-Blind Muse

DR8 -1.01 дБ -11.98 дБ 4:16 12-In the Vortex

Количество треков: 12
Реальные значения DR: DR6

Частота: 44100 Гц
Каналов: 2
Разрядность: 24
Битрейт: 1562 кбит/с
Кодек: FLAC
================================================================================ `


More at ibit.to
And ibit.uno
And ibit.am
And ibit.ws

Comments

Files

Diabulus In Musica - 2020 - Euphoric Entropy [Hi-Res]01 A Lucid Chaos.flac 19 MB
Diabulus In Musica - 2020 - Euphoric Entropy [Hi-Res]02 Race to Equilibrium.flac 68 MB
Diabulus In Musica - 2020 - Euphoric Entropy [Hi-Res]03 Nuevo Rumbo.flac 64 MB
Diabulus In Musica - 2020 - Euphoric Entropy [Hi-Res]04 The Misfit's Swing.flac 48 MB
Diabulus In Musica - 2020 - Euphoric Entropy [Hi-Res]05 In Quest of Sense.flac 60 MB
Diabulus In Musica - 2020 - Euphoric Entropy [Hi-Res]06 Otoi.flac 75 MB
Diabulus In Musica - 2020 - Euphoric Entropy [Hi-Res]07 Blurred Dreams.flac 61 MB
Diabulus In Musica - 2020 - Euphoric Entropy [Hi-Res]08 On the Edge.flac 55 MB
Diabulus In Musica - 2020 - Euphoric Entropy [Hi-Res]09 Our Last Gloomy Dance.flac 96 MB
Diabulus In Musica - 2020 - Euphoric Entropy [Hi-Res]10 One Step Higher.flac 64 MB
Diabulus In Musica - 2020 - Euphoric Entropy [Hi-Res]11 Blind Muse.flac 70 MB
Diabulus In Musica - 2020 - Euphoric Entropy [Hi-Res]12 In the Vortex.flac 51 MB

Stream

Downloading Seeding Diabulus In Musica - 2020 - Euphoric Entropy [Hi-Res] from to 0 peers.
of
0 b/s / ↗0 b/s