• 0
  • 0
  • done
Sponsored Downloadondemand_video
  • Der.Pass.S01.1080p.WEB-DL.x264.Rus.Ger-@EniaHD
  • 16 GB
  • parovozn
  • Der Pass S01 1080p WEB x264 Rus Ger EniaHD
  • Зарубежные сериалы (HD Video)
74%

Pagan Peak: Pagan Peak(2019)

  • Action & Adventure Crime Drama
  • When a gruesomely staged body is found, propped up on a mountain pass in the Alps close to the German-Austrian border, two detectives are sent to investigate. For German detective Ellie, this is the first real challenge of her career; her Austrian counterpart Gedeon though seems to have lost any ambitions in his job. Very soon, they discover more crime scenes with symbolically posed victims, reminiscent of pagan rituals. It all seems to be part of a bigger, sinister plan. Ellie finds herself under increasing pressure to understand the deranged killer's motives so she can stop him. The hunt leads them ever deeper in the dark valleys and archaic Alpine customs - and the paranoid world of the killer.

    German

    Description

    Перевал / Der Pass / Pagan Peak


    image

    Год выпуска : 2019

    Страна : Германия, Австрия

    Жанр : Триллер, драма, криминал, детектив

    Продолжительность : ~00:48:00


    Перевод : Профессиональный (двухголосый закадровый) | Кубик в кубе

    Оригинальная аудиодорожка : Немецкая

    Субтитры : Русские

    Реклама : Отсутствует


    Режиссёр : Сирил Босс, Филипп Штеннерт


    В ролях : Юлиа Йенч, Николас Офчарек, Франц Хартвиг, Ханно Коффлер, Лукас Мико, Наташа Петрович, Лукас Грегорович, Мартин Файфель, Кристофер Шерф, Джулиан Лооман..


    Описание : В заснеженных Альпах, на самой границе между Германией и Австрией, полиция находит труп мужчины. При осмотре выясняется: мужчину приволокли сюда уже мертвым, у него поддельные документы, а в руках — хвост из конского волоса. Расследовать загадочное преступление берутся два детектива из соседствующих стран.Она — жизнелюбивая немка Элли Стокер, которая пытается делать свою жуткую работу легко. Он — мрачный алкоголик Гедеон Винтер, оказавшийся на самом дне жизни. Вдвоем они включаются в расследование, которое все больше напоминает опасную игру, затеянную маньяком-убийцей, — и заодно демонстрируют, как важно при всей разности темпераментов и образов жизни держаться вместе..


    Ссылка на предыдущие и альтернативные раздачи


    Качество : WEB-DL 1080p

    Контейнер : MKV

    Видео : 1920x1080, 25.000 fps, MPEG-4 AVC, ~5000 kbps

    Аудио Rus : AC3, 48.0 kHz, 2ch, 192 kbps | Кубик в кубе

    Аудио Ger : AC3, 48.0 kHz, 2ch, 192 kbps

    Формат субтитров : softsub (SRT)


    imageimageimage


    image image

    ↑ Релиз ↑

    Файлы с КиноПоиска


    Список серий

    1. Finsternis
      1. Die rote Jahreszeit
      2. Der Mann aus dem Wald
      3. Die Bösen und Unartigen
      4. Masken
      5. Aus Fleisch und Blut
      6. Der Sturm
      7. Engerl

    MediaInfo

    `Общее
    Уникальный идентификатор : 200436282050588421905161291062562049384 (0x96CA9FAE5C692824F536D0256318CD68)
    Полное имя : J:[email protected]S01E02. Die rote [email protected]
    Формат : Matroska
    Версия формата : Version 4
    Размер файла : 1,75 Гбайт
    Продолжительность : 48 м. 8 с.
    Режим общего битрейта : Переменный
    Общий поток : 5201 Кбит/сек
    Название фильма : S01E02. Die rote [email protected]
    Трек/Положение : 2/8
    Описание : Ein Unternehmer wird brutal ermordet. Es gibt Parallelen zum ersten Fall. Eine Phantomzeichnung vom Täter zeigt eine teuflische Fratze. Und was bedeutet die Botschaft von der „roten Jahreszeit“?
    Дата кодирования : UTC 2019-03-29 21:47:35
    Программа кодирования : mkvmerge v32.0.0 ('Astral Progressions') 32-bit
    Библиотека кодирования : libebml v1.3.7 + libmatroska v1.5.0
    Attachments : poster
    ACTORS : Natasha Petrovic, Lucas Gregorowicz, Hanno Koffler, Franz Hartwig, Nicholas Ofczarek, Julia Jentsch
    DATE : 2019-01-25
    DIRECTOR : |Cyrill Boss|Philipp Stennert|
    EPISODESORT : 2
    GENRE : Thriller
    HD
    VIDEO : 1
    Язык : und
    MEDIATYPE : 10
    SEASON
    NUMBER : 1
    SHOW : Der Pass
    WRITER : |Cyrill Boss|Philipp Stennert|

    Видео
    Идентификатор : 1
    Формат : AVC
    Формат/Информация : Advanced Video Codec
    Профиль формата : [email protected]
    Настройки формата : CABAC / 4 Ref Frames
    Параметр CABAC формата : Да
    Параметр RefFrames формата : 4 кадра
    Идентификатор кодека : V_MPEG4/ISO/AVC
    Продолжительность : 48 м. 8 с.
    Вид битрейта : Переменный
    Битрейт : 4815 Кбит/сек
    Максимальный битрейт : 40,0 Мбит/сек
    Ширина : 1920 пикселей
    Высота : 1080 пикселей
    Соотношение сторон : 16:9
    Режим частоты кадров : Постоянный
    Частота кадров : 25,000 кадров/сек
    Цветовое пространство : YUV
    Субдискретизация насыщенности : 4:2:0
    Битовая глубина : 8 бит
    Тип развёртки : Прогрессивная
    Бит/(Пиксели*Кадры) : 0.093
    Размер потока : 1,62 Гбайт (93%)
    Язык : German
    Default : Да
    Forced : Нет

    Аудио #1
    Идентификатор : 2
    Формат : AC-3
    Формат/Информация : Audio Coding 3
    Коммерческое название : Dolby Digital
    Идентификатор кодека : A_AC3
    Продолжительность : 48 м. 8 с.
    Вид битрейта : Постоянный
    Битрейт : 192 Кбит/сек
    Каналы : 2 канала
    Channel layout : L R
    Частота : 48,0 КГц
    Частота кадров : 31,250 кадров/сек (1536 SPF)
    Битовая глубина : 16 бит
    Метод сжатия : С потерями
    Размер потока : 66,1 Мбайт (4%)
    Заголовок : DVO (Кубик в Кубе)
    Язык : Russian
    ServiceKind/String : Complete Main
    Default : Да
    Forced : Нет

    Аудио #2
    Идентификатор : 3
    Формат : AC-3
    Формат/Информация : Audio Coding 3
    Коммерческое название : Dolby Digital
    Идентификатор кодека : A_AC3
    Продолжительность : 48 м. 8 с.
    Вид битрейта : Постоянный
    Битрейт : 192 Кбит/сек
    Каналы : 2 канала
    Channel layout : L R
    Частота : 48,0 КГц
    Частота кадров : 31,250 кадров/сек (1536 SPF)
    Битовая глубина : 16 бит
    Метод сжатия : С потерями
    Размер потока : 66,1 Мбайт (4%)
    Язык : German
    ServiceKind/String : Complete Main
    Default : Нет
    Forced : Нет

    Текст
    Идентификатор : 4
    Формат : UTF-8
    Идентификатор кодека : S_TEXT/UTF8
    Идентификатор кодека/Информация : UTF-8 Plain Text
    Продолжительность : 44 м. 42 с.
    Битрейт : 95 бит/сек
    ElementCount : 660
    Размер потока : 31,4 Кбайт (0%)
    Язык : Russian
    Default : Нет
    Forced : Нет `


    Скриншоты

    image image
    image image
    image image



    More at ibit.to
    And ibit.uno
    And ibit.ws

    Reviews

    Comments

    Files

    S01E08. Engerl.1080p.WEB-DL.x264.Rus.Ger-@EniaHD.mkv 2.4 GB
    S01E04. Die Bösen und Unartigen.1080p.WEB-DL.x264.Rus.Ger-@EniaHD.mkv 2.2 GB
    S01E05. Masken.1080p.WEB-DL.x264.Rus.Ger-@EniaHD.mkv 2.1 GB
    S01E03. Der Mann aus dem Wald.1080p.WEB-DL.x264.Rus.Ger-@EniaHD.mkv 2.0 GB
    S01E02. Die rote Jahreszeit.1080p.WEB-DL.x264.Rus.Ger-@EniaHD.mkv 1.9 GB
    S01E06. Aus Fleisch und Blut.1080p.WEB-DL.x264.Rus.Ger-@EniaHD.mkv 1.9 GB
    S01E07. Der Sturm.1080p.WEB-DL.x264.Rus.Ger-@EniaHD.mkv 1.8 GB
    S01E01. Finsternis.1080p.WEB-DL.x264.Rus.Ger-@EniaHD.mkv 1.7 GB

    Stream

    Downloading Seeding Der.Pass.S01.1080p.WEB-DL.x264.Rus.Ger-@EniaHD from to 0 peers.
    of
    0 b/s / ↗0 b/s