• -
  • -
  • done
Anonymous Downloadondemand_video
  • DEAD_MAN_DOWN
  • 4.6 GB
  • сергей2087
  • DEAD MAN
  • DVD Video
Warning! Use a VPN When Downloading Torrents!
Your IP Address is ,
Your Internet Provider can see when you download torrents! Hide your IP ADDRESS with a VPN
We strongly recommend Trust.Zone VPN to hide your torrenting. It's FREE!
DOWNLOAD VPN
60%

Dead Man Down (2013)

  • Thriller Action Crime Drama
  • In New York City, a crime lord's right-hand man is seduced by a woman seeking retribution.

    expand_more
    English

    Description

    Одним меньше / Dead Man Down

    image

    Страна : США

    Студия : IM Global, WWE Studios, Original Film, Frequency Films

    Жанр : триллер, драма, криминал, боевик

    Год выпуска : 2013

    Продолжительность : 01:52:38

    Перевод : Профессиональный (дублированный)

    Субтитры : нет

    Оригинальная аудиодорожка : нет

    Режиссер : Нильс Арден Оплев / Niels Arden Oplev

    В ролях : Колин Фаррелл, Нуми Рапас, Терренс Ховард, Доминик Купер, Изабель Юппер, Луис Да Силва мл., Стю Беннет, Фрэнки Джи, Деклан Мулвей, Джон Ченатьемпо

    Описание : История человека по имени Виктор, он правая рука лидера преступной группировки из Нью-Йорка. Виктор неспроста оказался в криминальном синдикате: мафия уничтожила его семью, поэтому он хочет отомстить. Об этом узнает загадочная Беатрис, соблазняет его и шантажирует. Однако у героев только одна цель в жизни — месть. И она приведет их к кровавой развязке.

    Меню : есть, анимированное

    Сэмпл

    Тип релиза : DVD5

    Контейнер : DVD-Video

    Видео : PAL 16:9 (720x576) MPEG Video, 25,000 кадр/сек, 4552 Кбит/сек

    Аудио : Russian (Dolby AC-3, 6 ch) 256 Кбит/сек, 48.0 КГц

    DVDInfo

    Title: DEADMANDOWN
    Disk size: 4.24 Gb (4 450 628,00 KBytes)
    DVD Type: DVD-5
    Enabled regions: 1,2,3,4,5,6,7,8

    VTS_01:
    Title Play Length: 00:00:19
    Video: PAL 16:9 (720x576) VBR
    Auto Pan&Scan, Auto Letterboxed
    Audio (1):
    Not specified (Dolby AC3, 2 ch)
    Subsrcs (0)

    VTS_02:
    Title Play Length: 00:00:15
    Video: PAL 16:9 (720x576) VBR
    Auto Pan&Scan, Auto Letterboxed
    Audio (1):
    Not specified (Dolby AC3, 2 ch)
    Subsrcs (0)

    VTS_03:
    Title Play Length: 01:52:38
    Video: PAL 16:9 (720x576) VBR,Auto Letterboxed
    Audio (1):
    Not specified (Dolby AC3, 6 ch)
    Subsrcs (0)

    • Menus Information *

    VIDEO_TS Menu
    Video:
    PAL 16:9 (720x576) VBR
    Auto Pan&Scan, Auto Letterboxed
    Audio (0)
    Russian Language Unit :
    Title Menu

    VTS_01 Menu
    Video:
    PAL 16:9 (720x576) VBR
    Auto Pan&Scan, Auto Letterboxed
    Audio (1):
    Not specified (Dolby AC3, 6 ch)
    Russian Language Unit :
    Root Menu

    VTS_02 Menu
    Video:
    PAL 4:3 (720x576) VBR
    Audio (0)
    Russian Language Unit :
    Root Menu

    VTS_03 Menu
    Video:
    PAL 4:3 (720x576) VBR
    Audio (0)
    Russian Language Unit :
    Root Menu

    MediaInfo

    Общее
    Полное имя : DEADMANDOWNVIDEOTSVTS03_1.VOB
    Формат : MPEG-PS
    Размер файла : 1024 Мбайт
    Продолжительность : 29 м. 10 с.
    Режим общего битрейта : Переменный
    Общий поток : 4906 Кбит/сек

    Видео
    Идентификатор : 224 (0xE0)
    Формат : MPEG Video
    Версия формата : Version 2
    Профиль формата : [email protected]
    Настройки формата : CustomMatrix / BVOP
    Параметр BVOP формата : Да
    Параметр матрицы формата : Выборочная
    Параметр GOP формата : M=3, N=12
    Структура изображения : Frame
    Продолжительность : 29 м. 10 с.
    Вид битрейта : Переменный
    Битрейт : 4552 Кбит/сек
    Максимальный битрейт : 9000 Кбит/сек
    Ширина : 720 пикселей
    Высота : 576 пикселей
    Соотношение сторон : 16:9
    Частота кадров : 25,000 кадров/сек
    Стандарт вещания : PAL
    Цветовое пространство : YUV
    Субдискретизация насыщенности : 4:2:0
    Битовая глубина : 8 бит
    Тип развёртки : Чересстрочная
    Порядок развёртки : Верхнее поле первое
    Метод сжатия : С потерями
    Бит/(Пиксели*Кадры) : 0.439
    Временной код первого кадра : 01:00:00:00
    Оригинал временного кода : Group of pictures header
    GOP, открыто/закрыто : Закрыто
    Размер потока : 950 Мбайт (93%)
    Основные цвета : BT.601 PAL
    Характеристики трансфера : BT.470 System B, BT.470 System G
    Коэффициенты матрицы : BT.601

    Аудио
    Идентификатор : 189 (0xBD)-128 (0x80)
    Формат : AC-3
    Формат/Информация : Audio Coding 3
    Режим смешивания : DVD-Video
    Продолжительность : 29 м. 10 с.
    Вид битрейта : Постоянный
    Битрейт : 256 Кбит/сек
    Каналы : 6 каналов
    Расположение каналов : Front: L C R, Side: L R, LFE
    Частота : 48,0 КГц
    Частота кадров : 31,250 кадров/сек (1536 SPF)
    Битовая глубина : 16 бит
    Метод сжатия : С потерями
    Размер потока : 53,4 Мбайт (5%)
    ServiceKind/String : Complete Main

    Скриншоты меню

    image image

    Скриншоты

    image image image image


    More at ibit.to
    And ibit.uno
    And ibit.ws

    Reviews

    Comments

    Files

    DEAD_MAN_DOWNVIDEO_TSVIDEO_TS.BUP 12 kB
    DEAD_MAN_DOWNVIDEO_TSVIDEO_TS.IFO 12 kB
    DEAD_MAN_DOWNVIDEO_TSVTS_01_0.BUP 22 kB
    DEAD_MAN_DOWNVIDEO_TSVTS_01_0.IFO 22 kB
    DEAD_MAN_DOWNVIDEO_TSVTS_01_0.VOB 88 MB
    DEAD_MAN_DOWNVIDEO_TSVTS_01_1.VOB 15 MB
    DEAD_MAN_DOWNVIDEO_TSVTS_02_0.BUP 18 kB
    DEAD_MAN_DOWNVIDEO_TSVTS_02_0.IFO 18 kB
    DEAD_MAN_DOWNVIDEO_TSVTS_02_0.VOB 158 kB
    DEAD_MAN_DOWNVIDEO_TSVTS_02_1.VOB 16 MB
    DEAD_MAN_DOWNVIDEO_TSVTS_03_0.BUP 80 kB
    DEAD_MAN_DOWNVIDEO_TSVTS_03_0.IFO 80 kB
    DEAD_MAN_DOWNVIDEO_TSVTS_03_0.VOB 158 kB
    DEAD_MAN_DOWNVIDEO_TSVTS_03_1.VOB 1.1 GB
    DEAD_MAN_DOWNVIDEO_TSVTS_03_2.VOB 1.1 GB
    DEAD_MAN_DOWNVIDEO_TSVTS_03_3.VOB 1.1 GB
    DEAD_MAN_DOWNVIDEO_TSVTS_03_4.VOB 1.1 GB
    DEAD_MAN_DOWNVIDEO_TSVTS_03_5.VOB 144 MB

    Stream

    Downloading Seeding DEAD_MAN_DOWN from to 0 peers.
    of
    0 b/s / ↗0 b/s