• 5
  • 3
  • 2,617
  • done
Sponsored Downloadondemand_video
  • Creed 2.2018.720p.HDCAM.x264.With.Sample.LLG
  • 1.2 GB
  • LifeLongg
  • Creed 2018 720p HDCAM x264 Sample
  • English
  • h.264/x264

Description

Quote:

__

*****************************Thumbnail:*******************

image

***************************Screenshots:*****************

Screenshot 1

Screenshot 2

Screenshot 3

Screenshot 4

Screenshot 5

Screenshot 6

Screenshot 7

Screenshot 8

Screenshot 9

Screenshot 0


Creed 2.2018.720p.HDCAM.x264.With.Sample.LLG.mp4

Format : MPEG-4

Format profile : Base Media

Codec ID : isom (isom/iso2/avc1/mp41)

File size : 1.13 GiB

Duration : 2 h 2 min

Overall bit rate mode : Variable

Overall bit rate : 1 319 kb/s

Video

ID : 1

Format : AVC

Format/Info : Advanced Video Codec

Format profile : [email protected]
Format settings : CABAC / 1 Ref Frames

Format settings, CABAC : Yes

Format settings, RefFrames : 1 frame

Codec ID : avc1

Codec ID/Info : Advanced Video Coding

Duration : 2 h 2 min

Bit rate mode : Variable

Bit rate : 1 182 kb/s

Maximum bit rate : 3 600 kb/s

Width : 1 280 pixels

Height : 534 pixels

Display aspect ratio : 2.40:1

Frame rate mode : Constant

Frame rate : 29.970 (29970/1000) FPS

Original frame rate : 29.970 (30000/1001) FPS

Color space : YUV

Chroma subsampling : 4:2:0

Bit depth : 8 bits

Scan type : Progressive

Bits/(Pixel*Frame) : 0.058

Stream size : 1.01 GiB (90%)

Audio

ID : 2

Format : AAC LC

Format/Info : Advanced Audio Codec Low Complexity

Codec ID : mp4a-40-2

Duration : 2 h 2 min

Bit rate mode : Constant

Bit rate : 129 kb/s

Channel(s) : 2 channels

Channel layout : L R

Sampling rate : 48.0 kHz

Frame rate : 46.875 FPS (1024 SPF)

Compression mode : Lossy

Stream size : 113 MiB (10%)

Language : English

Default : Yes

Alternate group : 1


__


More at ibit.to
And ibit.uno
And ibit.ws

Comments

6 months ago

The pictures do not show you the 1xBET watermark and they left it out of the file name, such BS. If you're going to sell out and post their crap at least have the guts to post that it's their crap. It's the same quality "cam" they always put out it has the watermark on the top right for the entire run time with periodic yellow text that comes in across the whole top of the picture but from what I could see from scrubbing is there are no extra obnoxious ads mid-scene. I'm tired of wasting time and bandwidth on these 1xbet assholes and uploaders who don't say right off it's that crap. Get these 1xbet guys off this site it's the only site I've seen flooded with their shit

6 months ago

Decent copy just missing english subtitles when drago an his son speak russian in movie , 7/10 rating for a cam.

6 months ago

ignore the bitch JudeS79 , he clearly just hates on 1xbet wen its only 1 10 second ad in movie, get a life buddy an be thankfull we even have a watchable free copy.

6 months ago

v=7/audio=7 no fucking subs for russian parts though and checked sub scenes still zippo

Files

SAMPLE.mp4 34 MB
Creed 2.2018.720p.HDCAM.x264.With.Sample.LLG.mp4 1.1 GB

Stream

Downloading Seeding Creed 2.2018.720p.HDCAM.x264.With.Sample.LLG from to 0 peers.
of
0 b/s / ↗0 b/s