• 16
  • 5
  • 43
  • done
Sponsored Downloadondemand_video
  • Creed 2 2018 720p HDCAM x264 [MW]
  • 1.2 GB
  • moviezworldz
  • Creed 2018 720p HDCAM x264
  • English
  • h.264/x264

Description

image

**
General

Format : Matroska

Format version : Version 4 / Version 2

File size : 1.20 GiB

Duration : 2 h 2 min

Overall bit rate : 1 394 kb/s

Video

ID : 1

Format : AVC

Format/Info : Advanced Video Codec

Format profile : [email protected]
Format settings : CABAC / 4 Ref Frames

Format settings, CABAC : Yes

Format settings, RefFrames : 4 frames

Codec ID : V_MPEG4/ISO/AVC

Duration : 2 h 2 min

Bit rate : 1 200 kb/s

Width : 1 280 pixels

Height : 534 pixels

Display aspect ratio : 2.40:1

Frame rate mode : Constant

Frame rate : 29.970 (30000/1001) FPS

Color space : YUV

Chroma subsampling : 4:2:0

Bit depth : 8 bits

Scan type : Progressive

Bits/(Pixel*Frame) : 0.059

Stream size : 1.03 GiB (86%)

Writing library : x264 core 155 r2901 7d0ff22

Default : Yes

Forced : No

Audio

ID : 2

Format : AAC

Format/Info : Advanced Audio Codec

Format profile : LC

Codec ID : A_AAC-2

Duration : 2 h 2 min

Bit rate : 192 kb/s

Channel(s) : 2 channels

Channel positions : Front: L R

Sampling rate : 48.0 kHz

Frame rate : 46.875 FPS (1024 SPF)

Compression mode : Lossy

Stream size : 169 MiB (14%)

Language : English

Default : Yes

Forced : No

**

Click To View Image

image
image
image
image
image
image


More at ibit.to
And ibit.uno
And ibit.ws

Comments

6 months ago

Not so good quality as I tought... poor video and audio quality

This site provides you a much better video , no need to download.

6 months ago

I couldn't stand this low quality so i was looking for a better version and found

its just one push away, it has all in HD and with option for subs, enjoy

Files

Creed 2 2018 720p HDCAM x264 [MW].mkv 1.2 GB

Stream

Downloading Seeding Creed 2 2018 720p HDCAM x264 [MW] from to 0 peers.
of
0 b/s / ↗0 b/s