• 30
  • 6
  • 2,449
  • done
Anonymous Downloadondemand_video
  • Crazy Rich Asians (2018) (1080p BluRay x265 HEVC 10bit AAC 5.1 Joy) [UTR]
  • 1.5 GB
  • UTRCorp
  • Crazy Rich Asians 2018 1080p BluRay x265 HEVC 10bit AAC Joy UTR
  • English
  • HEVC/x265
Warning! Use a VPN When Downloading Torrents!
Your IP Address is ,
Your Internet Provider can see when you download torrents! Hide your IP ADDRESS with a VPN
We strongly recommend hide.me VPN to hide your torrenting. It's FREE!
DOWNLOAD VPN
71%

Crazy Rich Asians (2018)

  • Comedy Drama Romance
  • An American-born Chinese economics professor accompanies her boyfriend to Singapore for his best friend's wedding, only to get thrust into the lives of Asia's rich and famous.

    expand_more
    English
  • $30,000,000
  • Description

    image

    image
    image
    image
    image

    Media Information


    ** Media Information **


    Code:

    __ General
    Format : Matroska

    Format version : Version 4 / Version 2

    File size : 1.47 GiB

    Duration : 2 h 0 min

    Overall bit rate : 1 739 kb/s
    Movie name : Crazy Rich Asians 2018 (1080p x265 10bit Joy)[UTR]

    Encoded date : UTC 2018-12-19 01:41:45

    Writing application : mkvmerge v29.0.0 ('Like It Or Not') 64-bit

    Writing library : libebml v1.3.6 + libmatroska v1.4.9

    Cover : Yes

    Attachments : cover.jpg

    Writing frontend : StaxRip v1.8.2.0, a JoyBell Encode

    Video
    ID : 1

    Format : HEVC

    Format/Info : High Efficiency Video Coding

    Format profile : Main [email protected]@Main

    Codec ID : V_MPEGH/ISO/HEVC

    Duration : 2 h 0 min

    Bit rate : 1 495 kb/s

    Width : 1 920 pixels

    Height : 800 pixels

    Display aspect ratio : 2.40:1

    Frame rate mode : Constant

    Frame rate : 23.976 (24000/1001) FPS

    Color space : YUV

    Chroma subsampling : 4:2:0

    Bit depth : 10 bits

    Bits/(Pixel*Frame) : 0.041

    Stream size : 1.26 GiB (86%)

    Writing library : x265 2.8+19-bcdc610cf5f0:[Windows][MSVC 1914][64 bit] 10bit

    Encoding settings : cpuid=1111039 / frame-threads=3 / numa-pools=8 / wpp / no-pmode / no-pme / no-psnr / ssim / log-level=2 / input-csp=1 / input-res=1920x800 / interlace=0 / total-frames=173545 / level-idc=0 / high-tier=1 / uhd-bd=0 / ref=4 / no-allow-non-conformance / no-repeat-headers / annexb / no-aud / no-hrd / info / hash=0 / no-temporal-layers / open-gop / min-keyint=23 / keyint=250 / gop-lookahead=0 / bframes=4 / b-adapt=2 / b-pyramid / bframe-bias=0 / rc-lookahead=80 / lookahead-slices=4 / scenecut=40 / radl=0 / no-intra-refresh / ctu=64 / min-cu-size=8 / no-rect / no-amp / max-tu-size=32 / tu-inter-depth=1 / tu-intra-depth=1 / limit-tu=0 / rdoq-level=2 / dynamic-rd=0.00 / ssim-rd / signhide / no-tskip / nr-intra=0 / nr-inter=0 / no-constrained-intra / strong-intra-smoothing / max-merge=3 / limit-refs=3 / limit-modes / me=3 / subme=3 / merange=57 / temporal-mvp / weightp / no-weightb / no-analyze-src-pics / deblock=2:2 / sao / no-sao-non-deblock / rd=4 / no-early-skip / rskip / no-fast-intra / no-tskip-fast / no-cu-lossless / no-b-intra / no-splitrd-skip / rdpenalty=0 / psy-rd=0.00 / psy-rdoq=1.00 / no-rd-refine / no-lossless / cbqpoffs=0 / crqpoffs=0 / rc=abr / bitrate=1500 / qcomp=0.60 / qpstep=4 / stats-write=0 / stats-read=2 / cplxblur=20.0 / qblur=0.5 / vbv-maxrate=2400 / vbv-bufsize=7200 / vbv-init=0.9 / ipratio=1.40 / pbratio=1.30 / aq-mode=2 / aq-strength=0.80 / cutree / zone-count=0 / no-strict-cbr / qg-size=32 / no-rc-grain / qpmax=69 / qpmin=0 / no-const-vbv / sar=0 / overscan=0 / videoformat=5 / range=0 / colorprim=2 / transfer=2 / colormatrix=2 / chromaloc=0 / display-window=0 / max-cll=0,0 / min-luma=0 / max-luma=1023 / log2-max-poc-lsb=8 / vui-timing-info / vui-hrd-info / slices=1 / no-opt-qp-pps / no-opt-ref-list-length-pps / multi-pass-opt-rps / scenecut-bias=0.05 / no-opt-cu-delta-qp / no-aq-motion / no-hdr / no-hdr-opt / no-dhdr10-opt / no-idr-recovery-sei / analysis-reuse-level=10 / scale-factor=0 / refine-intra=0 / refine-inter=0 / refine-mv=0 / limit-sao / ctu-info=0 / no-lowpass-dct / refine-mv-type=0 / copy-pic=1 / max-ausize-factor=1.0 / no-dynamic-refine / no-single-sei

    Default : Yes

    Forced : No

    Audio
    ID : 2

    Format : AAC

    Format/Info : Advanced Audio Codec

    Format profile : HE-AAC / LC

    Codec ID : A_AAC

    Duration : 2 h 0 min

    Bit rate : 221 kb/s

    Channel(s) : 6 channels

    Channel positions : Front: L C R, Side: L R, LFE

    Sampling rate : 48.0 kHz / 24.0 kHz

    Frame rate : 23.438 FPS (1024 spf)

    Compression mode : Lossy

    Delay relative to video : 31 ms

    Stream size : 191 MiB (13%)

    Language : English

    Default : No

    Forced : No

    Subtitle #1
    ID : 3

    Format : PGS

    Muxing mode : zlib

    Codec ID : S_HDMV/PGS

    Codec ID/Info : Picture based subtitle format used on BDs/HD-DVDs

    Duration : 2 h 0 min

    Bit rate : 42.0 kb/s

    Count of elements : 3724

    Stream size : 36.2 MiB (2%)

    Language : English

    Default : No

    Forced : No

    Subtitle #2
    ID : 4

    Format : UTF-8

    Codec ID : S_TEXT/UTF8

    Codec ID/Info : UTF-8 Plain Text

    Duration : 1 h 59 min

    Bit rate : 61 b/s

    Count of elements : 1591

    Stream size : 53.9 KiB (0%)

    Language : English

    Default : No

    Forced : No

    Subtitle #3
    ID : 5

    Format : UTF-8

    Codec ID : S_TEXT/UTF8

    Codec ID/Info : UTF-8 Plain Text

    Duration : 2 h 0 min

    Bit rate : 70 b/s

    Count of elements : 1854

    Stream size : 61.9 KiB (0%)

    Default : No

    Forced : No

    Subtitle #4
    ID : 6

    Format : VobSub

    Muxing mode : zlib

    Codec ID : S_VOBSUB

    Codec ID/Info : Picture based subtitle format used on DVDs

    Duration : 1 h 59 min

    Bit rate : 8 818 b/s

    Count of elements : 1699

    Stream size : 7.56 MiB (1%)

    Language : French

    Default : No

    Forced : No

    Subtitle #5
    ID : 7

    Format : UTF-8

    Codec ID : S_TEXT/UTF8

    Codec ID/Info : UTF-8 Plain Text

    Duration : 1 h 57 min

    Bit rate : 91 b/s

    Count of elements : 1671

    Stream size : 78.9 KiB (0%)

    Language : Arabic

    Default : No

    Forced : No

    Subtitle #6
    ID : 8

    Format : UTF-8

    Codec ID : S_TEXT/UTF8

    Codec ID/Info : UTF-8 Plain Text

    Duration : 1 h 52 min

    Bit rate : 48 b/s

    Count of elements : 1483

    Stream size : 40.0 KiB (0%)

    Language : Chinese

    Default : No

    Forced : No

    Subtitle #7
    ID : 9

    Format : UTF-8

    Codec ID : S_TEXT/UTF8

    Codec ID/Info : UTF-8 Plain Text

    Duration : 1 h 59 min

    Bit rate : 62 b/s

    Count of elements : 1649

    Stream size : 54.4 KiB (0%)

    Language : Danish

    Default : No

    Forced : No

    Subtitle #8
    ID : 10

    Format : UTF-8

    Codec ID : S_TEXT/UTF8

    Codec ID/Info : UTF-8 Plain Text

    Duration : 1 h 52 min

    Bit rate : 57 b/s

    Count of elements : 1124

    Stream size : 47.3 KiB (0%)

    Language : Dutch

    Default : No

    Forced : No

    Subtitle #9
    ID : 11

    Format : UTF-8

    Codec ID : S_TEXT/UTF8

    Codec ID/Info : UTF-8 Plain Text

    Duration : 1 h 53 min

    Bit rate : 110 b/s

    Count of elements : 1820

    Stream size : 91.8 KiB (0%)

    Language : Persian

    Default : No

    Forced : No

    Subtitle #10
    ID : 12

    Format : UTF-8

    Codec ID : S_TEXT/UTF8

    Codec ID/Info : UTF-8 Plain Text

    Duration : 1 h 59 min

    Bit rate : 57 b/s

    Count of elements : 1624

    Stream size : 50.5 KiB (0%)

    Language : Finnish

    Default : No

    Forced : No

    Subtitle #11
    ID : 13

    Format : UTF-8

    Codec ID : S_TEXT/UTF8

    Codec ID/Info : UTF-8 Plain Text

    Duration : 1 h 52 min

    Bit rate : 89 b/s

    Count of elements : 1618

    Stream size : 73.8 KiB (0%)

    Language : Hebrew

    Default : No

    Forced : No

    Subtitle #12
    ID : 14

    Format : UTF-8

    Codec ID : S_TEXT/UTF8

    Codec ID/Info : UTF-8 Plain Text

    Duration : 1 h 59 min

    Bit rate : 60 b/s

    Count of elements : 1652

    Stream size : 53.5 KiB (0%)

    Language : Norwegian

    Default : No

    Forced : No

    Subtitle #13
    ID : 15

    Format : UTF-8

    Codec ID : S_TEXT/UTF8

    Codec ID/Info : UTF-8 Plain Text

    Duration : 1 h 59 min

    Bit rate : 59 b/s

    Count of elements : 1572

    Stream size : 52.4 KiB (0%)

    Language : Spanish

    Default : No

    Forced : No

    Subtitle #14
    ID : 16

    Format : UTF-8

    Codec ID : S_TEXT/UTF8

    Codec ID/Info : UTF-8 Plain Text

    Duration : 1 h 59 min

    Bit rate : 61 b/s

    Count of elements : 1631

    Stream size : 54.4 KiB (0%)

    Language : Swedish

    Default : No

    Forced : No

    Subtitle #15
    ID : 17

    Format : UTF-8

    Codec ID : S_TEXT/UTF8

    Codec ID/Info : UTF-8 Plain Text

    Duration : 2 h 0 min

    Bit rate : 134 b/s

    Count of elements : 1573

    Stream size : 119 KiB (0%)

    Language : Thai

    Default : No

    Forced : No

    Menu
    00:00:00.000 : :Chapter 1

    00:11:28.938 : :Chapter 2

    00:19:07.396 : :Chapter 3

    00:28:22.534 : :Chapter 4

    00:40:52.158 : :Chapter 5

    00:51:29.252 : :Chapter 6

    01:02:17.358 : :Chapter 7

    01:11:31.537 : :Chapter 8

    01:22:17.891 : :Chapter 9

    01:32:04.268 : :Chapter 10

    01:41:37.341 : :Chapter 11

    01:53:54.035 : :Chapter 12

    __


    ** Source Information **


    Code:

    __ Release:
    Crazy.Rich.Asians.2018.2160p.BluRay.x265.10bit.SDR.DTS-HD.MA.5.1-SWTYBLZ.mkv (24.52 GBs)

    __

    We have no issue with individuals posting or re-uploading our torrents on a platform we aren't on. However, if this is something you'd like to do, please do so in a 'as-is' format. We ask that you do not create a new torrent, include all descriptions you see above including the UTR logo, tags, notes and screenshots. If you'd like to become a permanent poster on a website we don't post to, feel free to get in contact with a UniTeam member.


    More at ibit.to
    And ibit.uno
    And ibit.am
    And ibit.ws

    Reviews

    _Crazy Rich Asians_ is not really my type of movie, I don't go in much for romcoms, and I don't think I'm fully on board with some of the messages it's trying to put out there. But I can appreciate that it's very well made, culturally very important, and even kind of endearing. _Final rating:★★½ - Not quite for me, but I definitely get the appeal._

    Comments

    Files

    Crazy Rich Asians 2018 (1080p x265 10bit S92 Joy).mkv 1.5 GB

    Stream

    Downloading Seeding Crazy Rich Asians (2018) (1080p BluRay x265 HEVC 10bit AAC 5.1 Joy) [UTR] from to 0 peers.
    of
    0 b/s / ↗0 b/s