• 9
  • 6
  • done
Sponsored Downloadondemand_video
  • Crazy Rich Asians 2018 1080p BluRay x264 DTS [MW]
  • 3.6 GB
  • moviefreak
  • Crazy Rich Asians 2018 1080p BluRay x264 DTS
  • English
  • HD 1080p
71%

Crazy Rich Asians (2018)

  • Comedy Drama Romance
  • An American-born Chinese economics professor accompanies her boyfriend to Singapore for his best friend's wedding, only to get thrust into the lives of Asia's rich and famous.

    expand_more
    English
  • $30,000,000
  • Description

    image

    **General

    Format                                   : Matroska

    Format version                           : Version 4

    File size                                : 3.55 GiB

    Duration                                 : 2 h 0 min

    Overall bit rate                         : 4 211 kb/s

    Video

    ID                                       : 1

    Format                                   : AVC

    Format/Info                              : Advanced Video Codec

    Format profile                           : [email protected]

    Format settings                          : CABAC / 4 Ref Frames

    Format settings, CABAC                   : Yes

    Format settings, Reference frames        : 4 frames

    Codec ID                                 : V_MPEG4/ISO/AVC

    Duration                                 : 2 h 0 min

    Bit rate                                 : 3 500 kb/s

    Width                                    : 1 920 pixels

    Height                                   : 800 pixels

    Display aspect ratio                     : 2.40:1

    Frame rate mode                          : Constant

    Frame rate                               : 23.976 (24000/1001) FPS

    Color space                              : YUV

    Chroma subsampling                       : 4:2:0

    Bit depth                                : 8 bits

    Scan type                                : Progressive

    Bits/(Pixel*Frame)                       : 0.095

    Stream size                              : 2.91 GiB (82%)

    Writing library                          : x264 core 155 r2901 7d0ff22

    Audio

    ID                                       : 2

    Format                                   : DTS

    Format/Info                              : Digital Theater Systems

    Codec ID                                 : A_DTS

    Duration                                 : 2 h 0 min

    Bit rate mode                            : Constant

    Bit rate                                 : 756 kb/s

    Channel(s)                               : 6 channels

    Channel layout                           : C L R Ls Rs LFE

    Sampling rate                            : 48.0 kHz

    Frame rate                               : 93.750 FPS (512 SPF)

    Bit depth                                : 16 bits

    Compression mode                         : Lossy

    Stream size                              : 652 MiB (18%)

    Language                                 : English

    Text

    ID                                       : 3

    Format                                   : UTF-8

    Codec ID                                 : S_TEXT/UTF8

    Codec ID/Info                            : UTF-8 Plain Text

    Duration                                 : 1 h 55 min

    Bit rate                                 : 73 b/s

    Count of elements                        : 2068

    Stream size                              : 62.6 KiB (0%)

    Language                                 : English

    Default                                  : Yes

    Forced                                   : No**

    Click To View Image

    https://pichub.site/image/yBcgg

    https://pichub.site/image/yBVSZ

    https://pichub.site/image/yBknI

    https://pichub.site/image/yByMX

    https://pichub.site/image/yBCt8

    https://pichub.site/image/yBh2J


    More at ibit.to
    And ibit.uno
    And ibit.ws

    Reviews

    _Crazy Rich Asians_ is not really my type of movie, I don't go in much for romcoms, and I don't think I'm fully on board with some of the messages it's trying to put out there. But I can appreciate that it's very well made, culturally very important, and even kind of endearing. _Final rating:★★½ - Not quite for me, but I definitely get the appeal._

    Comments

    Files

    Crazy Rich Asians 2018 1080p BluRay x264 DTS [MW].mkv 3.6 GB

    Stream

    Downloading Seeding Crazy Rich Asians 2018 1080p BluRay x264 DTS [MW] from to 0 peers.
    of
    0 b/s / ↗0 b/s