• 0
  • 0
  • done
Anonymous Download
  • Corelli - Concerti grossi op. VI - Dantone (2017)
  • 404 MB
  • caterina sforza
  • Corelli Concerti grossi Dantone 2017
  • Классическая и современная ака
Warning! Use a VPN When Downloading Torrents!
Your IP Address is ,
Your Internet Provider can see when you download torrents! Hide your IP ADDRESS with a VPN
We strongly recommend Trust.Zone VPN to hide your torrenting. It's FREE!
DOWNLOAD VPN

Description

Corelli - Concerti Grossi Op. VI nn. 1, 4, 5, 6, 8, 11 e 12

image

Жанр : Classical concerti grossi

Страна-производитель диска : Made in EU

Год издания диска : 2017

Издатель (лейбл) : Amadeus

Номер по каталогу : AM 328-2

Дата записи : 2013

Аудиокодек : FLAC

Тип рипа : image+.cue

Битрейт аудио : lossless

Продолжительность : 01:15:30

Источник : релизер

сайт-источник/ник/другое : Cunctator from Meeting Music

Наличие сканов в содержимом раздачи : да, полный авторский буклет jpeg, 11 страниц

Треклист :

Concerto N. 1 In Re Maggiore
1 Largo - Allegro - Largo - Allegro
2 Largo
3 Allegro
4 Allegro

Concerto N. 4 In Re Maggiore
5 Largo - Allegro
6 Adagio
7 Vivace
8 Allegro

Concerto N. 5 In Si Bemolle Maggiore
9 Adagio - Allegro - Adagio
10 Adagio
11 Allegro - Adagio
12 Largo - Allegro

Concerto N. 6 In Fa Maggiore
13 Adagio
14 Allegro
15 Largo
16 Vivace
17 Allegro

Concerto N. 8 In Sol Minore "Fatto Per La Notte Di Natale"
18 Vivace - Grave
19 Allegro
20 Adagio - Allegro -Adagio
21 Vivace
22 Allegro
23 Pastorale (Largo)

Concerto N. 11 In Si Bemolle Maggiore
24 Preludio (Andante-Largo)
25 Allemanda (Allegro)
26 Adagio
27 Andante - Largo
28 Sarabanda (Largo)
29 Giga (Allegro)

Concerto N. 12 In Fa Maggiore
30 Preludio (Adagio)
31 Allegro
32 Adagio
33 Sarabanda (Vivace)
34 Giga (Allegro)

Исполнители

`Arcangelo Corelli (1653-1713)

Concerti Grossi Op. VI nn. 1, 4, 5, 6, 8, 11 e 12

Accademia Bizantina

Ottavio Dantone (direttore al clavicembalo)

Rec. Live 16-17 july 2013, Basilica di S. Maria della Passione, Milano `

Лог создания рипа

`Exact Audio Copy V1.0 beta 3 from 29. August 2011

EAC extraction logfile from 3. November 2018, 17:08

Accademia Bizantina, Ottavio Dantone / Corelli - Concerti grossi op. 6

Used drive : hp DVD-RAM UJ8D1 Adapter: 0 ID: 0

Read mode : Secure
Utilize accurate stream : Yes
Defeat audio cache : Yes
Make use of C2 pointers : No

Read offset correction : 6
Overread into Lead-In and Lead-Out : No
Fill up missing offset samples with silence : Yes
Delete leading and trailing silent blocks : No
Null samples used in CRC calculations : Yes
Used interface : Native Win32 interface for Win NT & 2000

Used output format : User Defined Encoder
Selected bitrate : 768 kBit/s
Quality : High
Add ID3 tag : No
Command line compressor : C:Program Files (x86)Exact Audio CopyFLACFLAC.EXE
Additional command line options : -8 -V -T "ARTIST=%artist%" -T "TITLE=%src%" -T "ALBUM=%albumsrc%" -T "DATE=%year%" -T "TRACKNUMBER=%tracknr%" -T "GENRE=%genre%" -T "PERFORMER=%albuminterpret%" -T "COMPOSER=%composer%" %haslyrics%--tag-from-file=LYRICS="%lyricsfile%"%haslyrics% -T "ALBUMARTIST=%albumartist%" -T "DISCNUMBER=%cdnumber%" -T "TOTALDISCS=%totalcds%" -T "TOTALTRACKS=%numtracks%" -T "COMMENT=%comment%" %source% -o %dest%

TOC of the extracted CD

Track | Start | Length | Start sector | End sector


1 | 0:00.00 | 2:24.65 | 0 | 10864
2 | 2:24.65 | 2:28.14 | 10865 | 21978
3 | 4:53.04 | 2:40.12 | 21979 | 33990
4 | 7:33.16 | 3:52.03 | 33991 | 51393
5 | 11:25.19 | 3:37.67 | 51394 | 67735
6 | 15:03.11 | 1:41.37 | 67736 | 75347
7 | 16:44.48 | 0:59.22 | 75348 | 79794
8 | 17:43.70 | 3:13.27 | 79795 | 94296
9 | 20:57.22 | 3:28.11 | 94297 | 109907
10 | 24:25.33 | 1:35.40 | 109908 | 117072
11 | 26:00.73 | 2:07.27 | 117073 | 126624
12 | 28:08.25 | 3:23.57 | 126625 | 141906
13 | 31:32.07 | 1:56.67 | 141907 | 150673
14 | 33:28.74 | 1:52.25 | 150674 | 159098
15 | 35:21.24 | 2:47.32 | 159099 | 171655
16 | 38:08.56 | 2:06.52 | 171656 | 181157
17 | 40:15.33 | 1:48.10 | 181158 | 189267
18 | 42:03.43 | 1:28.74 | 189268 | 195941
19 | 43:32.42 | 2:29.43 | 195942 | 207159
20 | 46:02.10 | 2:43.37 | 207160 | 219421
21 | 48:45.47 | 0:59.74 | 219422 | 223920
22 | 49:45.46 | 2:01.56 | 223921 | 233051
23 | 51:47.27 | 3:58.46 | 233052 | 250947
24 | 55:45.73 | 2:22.18 | 250948 | 261615
25 | 58:08.16 | 2:30.05 | 261616 | 272870
26 | 60:38.21 | 0:47.55 | 272871 | 276450
27 | 61:26.01 | 1:15.19 | 276451 | 282094
28 | 62:41.20 | 1:13.26 | 282095 | 287595
29 | 63:54.46 | 1:12.25 | 287596 | 293020
30 | 65:06.71 | 2:34.40 | 293021 | 304610
31 | 67:41.36 | 2:25.49 | 304611 | 315534
32 | 70:07.10 | 1:47.20 | 315535 | 323579
33 | 71:54.30 | 0:50.44 | 323580 | 327373
34 | 72:44.74 | 2:45.48 | 327374 | 339796

Range status and errors

Selected range

Filename C:cunctatorCorelli - Concerti grossi op. 6 - Dantone.wav

Peak level 100.0 %
Extraction speed 5.3 X
Range quality 100.0 %
Test CRC A3104957
Copy CRC A3104957
Copy OK

No errors occurred

AccurateRip summary

Track 1 accurately ripped (confidence 3) 4F96DCF2
Track 2 accurately ripped (confidence 3) 8FB78F42
Track 3 accurately ripped (confidence 3) 936C8B2B
Track 4 accurately ripped (confidence 3) 09D893FE
Track 5 accurately ripped (confidence 3) AAD6FDC1
Track 6 accurately ripped (confidence 3) 7E3681A2
Track 7 accurately ripped (confidence 3) FB8274EB
Track 8 accurately ripped (confidence 3) 0AB6CA4B
Track 9 accurately ripped (confidence 3) 657CA0D2
Track 10 accurately ripped (confidence 3) BD163A75
Track 11 accurately ripped (confidence 3) 4CF3DE00
Track 12 accurately ripped (confidence 3) 10FC625F
Track 13 accurately ripped (confidence 3) 73B69D30
Track 14 accurately ripped (confidence 3) 299F490C
Track 15 accurately ripped (confidence 3) 1D0056D5
Track 16 accurately ripped (confidence 3) FD859FF0
Track 17 accurately ripped (confidence 3) C2948664
Track 18 accurately ripped (confidence 3) D62D5C68
Track 19 accurately ripped (confidence 3) 134DFCE9
Track 20 accurately ripped (confidence 3) E1FD2694
Track 21 accurately ripped (confidence 3) D837399D
Track 22 accurately ripped (confidence 3) 9D326F65
Track 23 accurately ripped (confidence 3) ACBE73A6
Track 24 accurately ripped (confidence 3) 07C244E8
Track 25 accurately ripped (confidence 3) A94BD7FB
Track 26 accurately ripped (confidence 3) 43F8527D
Track 27 accurately ripped (confidence 3) 8A268BB0
Track 28 accurately ripped (confidence 3) C83C79E9
Track 29 accurately ripped (confidence 3) 19F084B6
Track 30 accurately ripped (confidence 3) C2C0BFE0
Track 31 accurately ripped (confidence 3) 5701859A
Track 32 accurately ripped (confidence 3) 1473D2F3
Track 33 accurately ripped (confidence 3) 5C7394FA
Track 34 accurately ripped (confidence 3) C96AB06A

All tracks accurately ripped

End of status report

==== Log checksum 7C3E9F80AE5B65D23D4D88C9954776D0DC53453B8FC6B2F4BDEBF934CBCEE516 ==== `

Содержание индексной карты (.CUE)

REM GENRE Classical REM DATE 2017 REM DISCID 0811B222 REM COMMENT "ExactAudioCopy v1.0b3" PERFORMER "Accademia Bizantina, Ottavio Dantone (direttore al clavicembalo)" TITLE "Corelli - Concerti grossi op. 6" REM COMPOSER "Arcangelo Corelli (1653-1713)" FILE "Corelli - Concerti grossi op. 6 - Dantone.flac" WAVE TRACK 01 AUDIO TITLE "Concerto n. 1 in re maggiore - 1. Largo - Allegro - Largo - Allegro" PERFORMER "Accademia Bizantina, Ottavio Dantone" INDEX 01 00:00:00 TRACK 02 AUDIO TITLE "Concerto n. 1 in re maggiore - 2. Largo" PERFORMER "Accademia Bizantina, Ottavio Dantone" INDEX 01 02:24:65 TRACK 03 AUDIO TITLE "Concerto n. 1 in re maggiore - 3. Allegro" PERFORMER "Accademia Bizantina, Ottavio Dantone" INDEX 01 04:53:04 TRACK 04 AUDIO TITLE "Concerto n. 1 in re maggiore - 4. Allegro" PERFORMER "Accademia Bizantina, Ottavio Dantone" INDEX 01 07:33:16 TRACK 05 AUDIO TITLE "Concerto n. 4 in re maggiore - 1. Largo-Allegro" PERFORMER "Accademia Bizantina, Ottavio Dantone" INDEX 00 11:20:66 INDEX 01 11:25:19 TRACK 06 AUDIO TITLE "Concerto n. 4 in re maggiore - 2. Adagio" PERFORMER "Accademia Bizantina, Ottavio Dantone" INDEX 01 15:03:11 TRACK 07 AUDIO TITLE "Concerto n. 4 in re maggiore - 3. Vivace" PERFORMER "Accademia Bizantina, Ottavio Dantone" INDEX 01 16:44:48 TRACK 08 AUDIO TITLE "Concerto n. 4 in re maggiore - 4. Allegro" PERFORMER "Accademia Bizantina, Ottavio Dantone" INDEX 01 17:43:70 TRACK 09 AUDIO TITLE "Concerto n. 5 in si bemolle maggiore - 1. Adagio - Allegro - Adagio" PERFORMER "Accademia Bizantina, Ottavio Dantone" INDEX 00 20:53:07 INDEX 01 20:57:22 TRACK 10 AUDIO TITLE "Concerto n. 5 in si bemolle maggiore - 2. Adagio" PERFORMER "Accademia Bizantina, Ottavio Dantone" INDEX 01 24:25:33 TRACK 11 AUDIO TITLE "Concerto n. 5 in si bemolle maggiore - 3. Allegro-Adagio" PERFORMER "Accademia Bizantina, Ottavio Dantone" INDEX 01 26:00:73 TRACK 12 AUDIO TITLE "Concerto n. 5 in si bemolle maggiore - 4. Largo-Allegro" PERFORMER "Accademia Bizantina, Ottavio Dantone" INDEX 01 28:08:25 TRACK 13 AUDIO TITLE "Concerto n. 6 in fa maggiore - 1. Adagio" PERFORMER "Accademia Bizantina, Ottavio Dantone" INDEX 00 31:28:35 INDEX 01 31:32:07 TRACK 14 AUDIO TITLE "Concerto n. 6 in fa maggiore - 2. Allegro" PERFORMER "Accademia Bizantina, Ottavio Dantone" INDEX 01 33:28:74 TRACK 15 AUDIO TITLE "Concerto n. 6 in fa maggiore - 3. Largo" PERFORMER "Accademia Bizantina, Ottavio Dantone" INDEX 01 35:21:24 TRACK 16 AUDIO TITLE "Concerto n. 6 in fa maggiore - 4. Vivace" PERFORMER "Accademia Bizantina, Ottavio Dantone" INDEX 01 38:08:56 TRACK 17 AUDIO TITLE "Concerto n. 6 in fa maggiore - 5. Allegro" PERFORMER "Accademia Bizantina, Ottavio Dantone" INDEX 01 40:15:33 TRACK 18 AUDIO TITLE "Concerto n. 8 in sol minore (per la notte di Natale) - 1. Vivace-Grave" PERFORMER "Accademia Bizantina, Ottavio Dantone" INDEX 00 42:00:07 INDEX 01 42:03:43 TRACK 19 AUDIO TITLE "Concerto n. 8 in sol minore (per la notte di Natale) - 2. Allegro" PERFORMER "Accademia Bizantina, Ottavio Dantone" INDEX 01 43:32:42 TRACK 20 AUDIO TITLE "Concerto n. 8 in sol minore (per la notte di Natale) - 3. Adagio-Allegro-Adagio" PERFORMER "Accademia Bizantina, Ottavio Dantone" INDEX 01 46:02:10 TRACK 21 AUDIO TITLE "Concerto n. 8 in sol minore (per la notte di Natale) - 4. Vivace" PERFORMER "Accademia Bizantina, Ottavio Dantone" INDEX 01 48:45:47 TRACK 22 AUDIO TITLE "Concerto n. 8 in sol minore (per la notte di Natale) - 5. Allegro" PERFORMER "Accademia Bizantina, Ottavio Dantone" INDEX 01 49:45:46 TRACK 23 AUDIO TITLE "Concerto n. 8 in sol minore (per la notte di Natale) - 6. Pastorale (Largo)" PERFORMER "Accademia Bizantina, Ottavio Dantone" INDEX 01 51:47:27 TRACK 24 AUDIO TITLE "Concerto n. 11 in si bemolle maggiore - 1. Preludio (Andante - Largo)" PERFORMER "Accademia Bizantina, Ottavio Dantone" INDEX 00 55:43:45 INDEX 01 55:45:73 TRACK 25 AUDIO TITLE "Concerto n. 11 in si bemolle maggiore - 2. Allemanda (Allegro)" PERFORMER "Accademia Bizantina, Ottavio Dantone" INDEX 01 58:08:16 TRACK 26 AUDIO TITLE "Concerto n. 11 in si bemolle maggiore - 3. Adagio" PERFORMER "Accademia Bizantina, Ottavio Dantone" INDEX 01 60:38:21 TRACK 27 AUDIO TITLE "Concerto n. 11 in si bemolle maggiore - 4. Andante - Largo" PERFORMER "Accademia Bizantina, Ottavio Dantone" INDEX 01 61:26:01 TRACK 28 AUDIO TITLE "Concerto n. 11 in si bemolle maggiore - 5. Sarabanda (Largo)" PERFORMER "Accademia Bizantina, Ottavio Dantone" INDEX 01 62:41:20 TRACK 29 AUDIO TITLE "Concerto n. 11 in si bemolle maggiore - 6. Giga (Allegro)" PERFORMER "Accademia Bizantina, Ottavio Dantone" INDEX 01 63:54:46 TRACK 30 AUDIO TITLE "Concerto n. 12 in fa maggiore - 1. Preludio (Adagio)" PERFORMER "Accademia Bizantina, Ottavio Dantone" INDEX 00 65:03:52 INDEX 01 65:06:71 TRACK 31 AUDIO TITLE "Concerto n. 12 in fa maggiore - 2. Allegro" PERFORMER "Accademia Bizantina, Ottavio Dantone" INDEX 01 67:41:36 TRACK 32 AUDIO TITLE "Concerto n. 12 in fa maggiore - 3. Adagio" PERFORMER "Accademia Bizantina, Ottavio Dantone" INDEX 01 70:07:10 TRACK 33 AUDIO TITLE "Concerto n. 12 in fa maggiore - 4. Sarabanda (Vivace)" PERFORMER "Accademia Bizantina, Ottavio Dantone" INDEX 01 71:54:30 TRACK 34 AUDIO TITLE "Concerto n. 12 in fa maggiore - 5. Giga (Allegro)" PERFORMER "Accademia Bizantina, Ottavio Dantone" INDEX 01 72:44:74


More at ibit.to
And ibit.uno
And ibit.ws

Comments

Files

Corelli - Concerti grossi op. VI - Dantone (2017)original cueCorelli - Concerti grossi op. 6 - Dantone.cue 5.8 kB
Corelli - Concerti grossi op. VI - Dantone (2017)Corelli - Concerti grossi op. 6 - Dantone.cue 6.0 kB
Corelli - Concerti grossi op. VI - Dantone (2017)Corelli - Concerti grossi op. 6 - Dantone.log 13 kB
Corelli - Concerti grossi op. VI - Dantone (2017)booklet02-03.jpg 618 kB
Corelli - Concerti grossi op. VI - Dantone (2017)booklet10-11.jpg 1.0 MB
Corelli - Concerti grossi op. VI - Dantone (2017)cover.jpg 1.2 MB
Corelli - Concerti grossi op. VI - Dantone (2017)back.jpg 1.3 MB
Corelli - Concerti grossi op. VI - Dantone (2017)booklet04-05.jpg 1.5 MB
Corelli - Concerti grossi op. VI - Dantone (2017)booklet08-09.jpg 1.5 MB
Corelli - Concerti grossi op. VI - Dantone (2017)booklet06-07.jpg 1.6 MB
Corelli - Concerti grossi op. VI - Dantone (2017)Corelli - Concerti grossi op. 6 - Dantone.flac 395 MB

Stream

Downloading Seeding Corelli - Concerti grossi op. VI - Dantone (2017) from to 0 peers.
of
0 b/s / ↗0 b/s