• 1
  • 1
Sponsored Download
  • Contagion.2011.1080p.BluRay.x264.DTS-FGT
  • 8.7 GB
  • Contagion 2011 1080p BluRay x264 DTS FGT
  • English,Mandarin,Cantonese
  • Other

Description

Soon after her return from a business trip to Hong Kong| Beth Emhoff dies from what is a flu or some other type of infection. Her young son dies later the same day.Her husband Mitch however seems immune. Thus begins the spread of a deadly infection. For doctors and administrators at the U.S. Centers for Disease Control| severaldays pass before anyone realizes the extent or gravity of this new infection. They must first identify the type of virus in question and then find a means ofcombating it| a process that will likely take several months. As the contagion spreads to millions of people worldwide| societal order begins to break down as peoplepanic.

http://imdb.com/title/tt1598778/

image

image

image

image

image

image

MediaInfo:

Video

ID                                       : 1

Format                                   : AVC

Format/Info                              : Advanced Video Codec

Format profile                           : High@L4.1

Format settings, CABAC                   : Yes

Format settings, ReFrames                : 4 frames

Codec ID                                 : V_MPEG4/ISO/AVC

Duration                                 : 1h 46mn

Bit rate                                 : 10.3 Mbps

Width                                    : 1 920 pixels

Height                                   : 1 080 pixels

Display aspect ratio                     : 16:9

Frame rate mode                          : Constant

Frame rate                               : 23.976 (24000/1001) fps

Color space                              : YUV

Chroma subsampling                       : 4:2:0

Bit depth                                : 8 bits

Scan type                                : Progressive

Bits/(Pixel*Frame)                       : 0.206

Stream size                              : 7.45 GiB (85%)

Writing library                          : x264 core 116 r2074 2641b9e

Encoding settings                        : cabac=1 / ref=4 / deblock=1:-3:-3 / analyse=0x3:0x133 / me=umh / subme=10 / psy=1 / psyrd=1.00:0.00 / mixedref=1 / merange=48 / chromame=1 / trellis=2 / 8x8dct=1 / cqm=0 / deadzone=21,11 / fastpskip=1 / chromaqpoffset=-2 / threads=12 / slicedthreads=0 / nr=0 / decimate=0 / interlaced=0 / bluraycompat=0 / constrainedintra=0 / bframes=6 / bpyramid=2 / badapt=2 / bbias=0 / direct=3 / weightb=1 / opengop=0 / weightp=2 / keyint=250 / keyintmin=23 / scenecut=40 / intrarefresh=0 / rclookahead=60 / rc=2pass / mbtree=1 / bitrate=10261 / ratetol=1.0 / qcomp=0.60 / qpmin=0 / qpmax=69 / qpstep=4 / cplxblur=20.0 / qblur=0.5 / vbvmaxrate=50000 / vbvbufsize=50000 / nalhrd=none / ip_ratio=1.50 / aq=1:1.00

Language                                 : English

Default                                  : Yes

Forced                                   : No

Audio

ID                                       : 2

Format                                   : DTS

Format/Info                              : Digital Theater Systems

Mode                                     : 16

Format settings, Endianness              : Big

Codec ID                                 : A_DTS

Duration                                 : 1h 46mn

Bit rate mode                            : Constant

Bit rate                                 : 1 509 Kbps

Channel(s)                               : 6 channels

Channel positions                        : Front: L C R, Side: L R, LFE

Sampling rate                            : 48.0 KHz

Frame rate                               : 93.750 fps (512 spf)

Bit depth                                : 24 bits

Compression mode                         : Lossy

Stream size                              : 1.12 GiB (13%)

Language                                 : English

Default                                  : Yes

Forced                                   : No


More at ibit.to
And ibit.uno
And ibit.ws

Comments

3 years ago

Thanks

Files

Contagion.2011.1080p.BluRay.x264.DTS-FGT.mkv 8.7 GB
Contagion.2011.1080p.BluRay.x264.DTS-FGT.nfo 3.9 kB
RARBG.com.txt 30 B
Contagion.2011.1080p.BluRay.x264.DTSFGT -
Contagion.2011.1080p.BluRay.x264.DTSFGT.mkv 8.7 GB
Contagion.2011.1080p.BluRay.x264.DTSFGT.nfo 3.9 kB

Stream

Downloading Seeding Contagion.2011.1080p.BluRay.x264.DTS-FGT from to 0 peers.
of
0 b/s / ↗0 b/s