• 0
  • 0
  • done
Sponsored Downloadondemand_video
  • Commando.1985
  • 1.7 GB
  • andre90
  • Commando 1985
  • English
  • HD
65%

Commando (1985)

  • Action Adventure Thriller
  • John Matrix, the former leader of a special commando strike force that always got the toughest jobs done, is forced back into action when his young daughter is kidnapped. To find her, Matrix has to fight his way through an array of punks, killers, one of his former commandos, and a fully equipped private army. With the help of a feisty stewardess and an old friend, Matrix has only a few hours to overcome his greatest challenge: finding his daughter before she's killed.

    expand_more
    English
  • $10,000,000
  • Description

    Коммандос / Коммандо / Commando

    «Somewhere... somehow... someone's going to pay!»

    image


    Страна : США

    Жанр : боевик, приключения

    Год выпуска : 1985

    Продолжительность : 01:30:16


    Перевод : Двухголосый закадровый,

    П. Гланц и И. Королева

    Одноголосый закадровый,

    В. Горчаков

    Многоголосый закадровый,

    1+1/ICTV

    Субтитры : Russian (R5), Russian (Гоблин), English


    Режиссер : Марк Л. Лестер / Mark L. Lester

    В ролях : Арнольд Шварценеггер, Рей Дон Чонг, Дэн Хедайя, Вернон Уэллс, Джеймс Олсон, Дэвид Патрик Келли, Алисса Милано, Билл Дьюк, Дрю Снайдер, Шарон Виатт

    Описание : Полковник в отставке Джон Матрикс - бывший командир спецотряда, участвовавшего в секретных операциях на Ближнем Востоке, СССР и Центральной Америке. Находясь в отличной физической форме и владея знаниями, которые делают его супер-солдатом, полковник в отставке Джон Матрикс живет под другим именем в большом доме со своей дочерью вдали от города.

    Но спокойную жизнь нарушает его старый враг, похищая 11-ти летнюю дочь полковника. И вспыхнувший ненавистью Джон Матрикс безжалостно убивает всех, кто становится у него на пути к спасению любимой дочери...


    Знаете ли вы, что...

    Песня, звучащая в концовке это We Fight for Love (иногда упоминается ещё как Somewhere, Somehow, Someone's Gotta Pay) группы Power Station.

    Изначально предполагалось, что фильм будет снимать режиссёр Джон Мактирнен, но он отказался. А спустя два года, в 1987, он согласился снять фильм «Хищник» также со Шварценеггером в главной роли.

    Просторный супермаркет Sherman Oaks Galleria, в котором как Тарзан летал герой Шварценеггера, потом будет снят и в другом его фильме — в «Терминаторе 2».

    Актёр Вернон Уэллс (Беннетт) и сам изначально пробовался на роль полковника Мэтрикса.

    Дом, в котором происходит финальная перестрелка между Мэтриксом и Ариусом — это тот же дом, в котором снималась заключительная перестрелка между Фоли и Мэйтландом в фильме «Полицейский из Беверли Хиллз».

    В качестве оператора радара снялся известный в будущем актёр Билл Пэкстон.

    К фильму задумывался сиквел, но так и не был снят из-за незаинтересованности Шварценеггера. Сценарий несостоявшегося сиквела был переписан и превратился в фильм «Крепкий орешек», снятый в 1988 году и подаривший миру нового супергероя (Брюс Уиллис).

    Из режиссёрской версии картины становится известно, что мать Дженни умерла при родах.

    Арнольд согласился исполнить главную роль, по его словам это был первый сценарий со времён успеха «Терминатора» где ему не предлагали вновь стать роботом.

    Арнольд стремился самостоятельно исполнять все трюки, не используя дублёра, даже в известной сцене, где на скорости 65 миль в час приходилось висеть, держась за шасси самолёта. Цена? Выбитое плечо и несколько швов на руке и локте.

    Вернон Уэллс вне сьёмочной площадки был очень обаятельным и приятным парнем, тем более удивительным выглядело его перевоплощение в изувера Беннета. Однажды, после сьёмок сцены драки на ножах, Лестер сказал следующее: 'Закончили. И не подпускайте ко мне Беннета'.

    По словам Уэллса, костюмеры нашли ему одежду на несколько размеров меньше, дабы он выглядел ещё более мерзко. Сам Вернон шуточно называет Беннета «Фредди Меркьюрри на стероидах».

    Чемпионом среди живых мертвецов можно считать безымянного бородача: этого дядю Арни за пятнадцать минут фильма замочил аж четыре раза.

    Железный Арни подтверждает свое прозвище, падая из самолета в болотистые заросли с высоты в нескольких десятков метров.

    За время фильма Арни успевает поменять часы с электронных на механические со стрелками, а в сцене прибытия на остров в лодке, за секунду, меняет трусы с серых на черные.


    Качество видео : HDRip [BDRip 1080p]

    Формат видео : AVI

    Видео : 704x384 (1,85:1), 23,976 кадра/сек, 1523 Кбит/сек, 0,235 bit/pixel

    Аудио 1 : AC-3, 384 Кбит/сек, 6 каналов, 48,0 КГц | DVO

    Аудио 2 : AC-3, 192 Кбит/сек, 2 канала, 48,0 КГц | AVO

    Аудио 3 : AC-3, 192 Кбит/сек, 2 канала, 48,0 КГц | UKR

    Аудио 4 : AC-3, 384 Кбит/сек, 6 каналов, 48,0 КГц | ENG

    • отдельно

    Формат субтитров: SoftSub (SRT) - отдельно



    image image



    Сравнения

    http://rutracker.org/forum/viewtopic.php?t=3448958
    http://screenshotcomparison.com/comparison/161397

    MediaInfo

    Код:

    General
    Complete name                            : D:ФИЛЬМЫCommando.1985Commando.1985.HDRip.andre90.avi
    Format                                   : AVI
    Format/Info                              : Audio Video Interleave
    File size                                : 1.46 GiB
    Duration                                 : 1h 30mn
    Overall bit rate                         : 2 309 Kbps
    Writing application                      : VirtualDubMod 1.5.10.2 (build 2540/release)
    Writing library                          : VirtualDubMod build 2540/release

    Video
    ID                                       : 0
    Format                                   : MPEG-4 Visual
    Format profile                           : Advanced Simple@L5
    Format settings, BVOP                    : 1
    Format settings, QPel                    : No
    Format settings, GMC                     : No warppoints
    Format settings, Matrix                  : Custom
    Codec ID                                 : XVID
    Codec ID/Hint                            : XviD
    Duration                                 : 1h 30mn
    Bit rate                                 : 1 523 Kbps
    Width                                    : 704 pixels
    Height                                   : 384 pixels
    Display aspect ratio                     : 1.85:1
    Frame rate                               : 23.976 fps
    Color space                              : YUV
    Chroma subsampling                       : 4:2:0
    Bit depth                                : 8 bits
    Scan type                                : Progressive
    Compression mode                         : Lossy
    Bits/(Pixel*Frame)                       : 0.235
    Stream size                              : 983 MiB (66%)
    Writing library                          : XviD 1.2.1 (UTC 2008-12-04)

    Audio #1
    ID                                       : 1
    Format                                   : AC-3
    Format/Info                              : Audio Coding 3
    Mode extension                           : CM (complete main)
    Format settings, Endianness              : Big
    Codec ID                                 : 2000
    Duration                                 : 1h 30mn
    Bit rate mode                            : Constant
    Bit rate                                 : 384 Kbps
    Channel(s)                               : 6 channels
    Channel positions                        : Front: L C R, Side: L R, LFE
    Sampling rate                            : 48.0 KHz
    Bit depth                                : 16 bits
    Compression mode                         : Lossy
    Stream size                              : 248 MiB (17%)
    Alignment                                : Split accross interleaves
    Interleave, duration                     : 42 ms (1.00 video frame)
    Interleave, preload duration             : 500 ms
    Title                                    : Двухголосый закадровый, П. Гланц и И. Королева

    Audio #2
    ID                                       : 2
    Format                                   : AC-3
    Format/Info                              : Audio Coding 3
    Mode extension                           : CM (complete main)
    Format settings, Endianness              : Big
    Codec ID                                 : 2000
    Duration                                 : 1h 30mn
    Bit rate mode                            : Constant
    Bit rate                                 : 192 Kbps
    Channel(s)                               : 2 channels
    Channel positions                        : Front: L R
    Sampling rate                            : 48.0 KHz
    Bit depth                                : 16 bits
    Compression mode                         : Lossy
    Stream size                              : 124 MiB (8%)
    Alignment                                : Split accross interleaves
    Interleave, duration                     : 42 ms (1.00 video frame)
    Interleave, preload duration             : 500 ms
    Title                                    : Одноголосый закадровый, В. Горчаков

    Audio #3
    ID                                       : 3
    Format                                   : AC-3
    Format/Info                              : Audio Coding 3
    Mode extension                           : CM (complete main)
    Format settings, Endianness              : Big
    Codec ID                                 : 2000
    Duration                                 : 1h 30mn
    Bit rate mode                            : Constant
    Bit rate                                 : 192 Kbps
    Channel(s)                               : 2 channels
    Channel positions                        : Front: L R
    Sampling rate                            : 48.0 KHz
    Bit depth                                : 16 bits
    Compression mode                         : Lossy
    Stream size                              : 124 MiB (8%)
    Alignment                                : Split accross interleaves
    Interleave, duration                     : 42 ms (1.00 video frame)
    Interleave, preload duration             : 500 ms
    Title                                    : Многоголосый закадровый, 1+1/ICTV

    Скриншоты

    image image image image image image

    image


    More at ibit.to
    And ibit.uno
    And ibit.ws

    Reviews

    Let the story, acting, stunt-work, script, cinematography, production value, and just about everything else all dribble away while you sit back and enjoy watching Arnie kill more than 80 antagonists in about 80 minutes. _Final rating:★★★ - I liked it. Would personally recommend you give it a go._

    Comments

    6 years ago

    Как правильно сделать сравнение скриншотов ⇒

    6 years ago

    Огромное спасибо за Горчакова ! Гаврилов как-то уже приелся !

    6 years ago

    а куда делся дубляж с трекера???

    5 years ago

    Отличная скорость по нынешним временам! Всем спасибо - фильм ништяк!

    4 years ago

    СПАСИБО ОГРОМНОЕ, дубляж просто ненавижу, всегда ищу одноголосые озвучки. так что радости полные.....короче, спасибо

    Files

    Commando.1985 1.7 GB

    Stream

    Downloading Seeding Commando.1985 from to 0 peers.
    of
    0 b/s / ↗0 b/s