• 0
  • 0
  • 231
  • done
Sponsored Downloadondemand_video
67%

Clouds of Sils Maria (2014)

  • Drama
  • A veteran actress comes face-to-face with an uncomfortable reflection of herself when she agrees to take part in a revival of the play that launched her career 20 years earlier.

    expand_more
    English
  • $6,600,000
  • Description

    Sils Maria (2014).DVDrip.XviD - Italian English.Ac3.5.1.Sub.ita.MIRCrew

    **image

    **

    ** NO FOUND ONLY ORIGINAL RELEASE **

    **

    Sils Maria (2014)

    image

    image

    image

    DATA USCITA: 06 novembre 2014

    GENERE: Drammatico

    ANNO: 2014

    REGIA: Olivier Assayas

    SCENEGGIATURA: Olivier Assayas

    FOTOGRAFIA: Yorick Le Saux

    MONTAGGIO: Marion Monnier

    PRODUZIONE: CG Cinéma, CAB Productions, Pallas Film, Arte France Cinéma

    DISTRIBUZIONE: Good Films

    PAESE: Svizzera, Germania, Francia

    DURATA: 124 Min

    image

    Chloë Grace Moretz, Kristen Stewart, Juliette Binoche, Brady Corbet, Johnny Flynn, Claire Tran, Hanns Zischler, Angela Winkler

    image.

    A 18 anni, Maria Enders ha raggiunto il successo interpretando in teatro il ruolo di Sigrid, giovane e ambiziosa ragazza il cui inquietante fascino conduce al suicidio una donna matura, Helena. Venti anni più tardi, al culmine della sua fama, riceve a Zurigo un prestigioso premio a nome di Wilhelm Melchior, autore e regista della pièce teatrale, il quale muore all'improvviso poche ore prima della cerimonia. A Maria Enders viene proposto di riportare in scena l'opera, ma questa volta dall'altra parte, nel ruolo di Helena. ........

    image

    A veteran actress comes face-to-face with an uncomfortable reflection of herself when she agrees to take part in a revival of the play that launched her career 20 years earlier..................

    image
    image

    image

    image

    image

    [spoiler]

    General

    Complete name : Sils Maria (2014).ita.eng.sub.ita.MIRCrewSils Maria (2014).ita.eng.sub.ita.MIRCrew.avi

    Format : AVI

    Format/Info : Audio Video Interleave

    Format profile : OpenDML

    File size : 1.99 GiB

    Duration : 1h 59mn

    Overall bit rate : 2 393 Kbps

    Writing application : VirtualDubMod 1.5.4.1 (build 2178/release)

    Writing library : VirtualDubMod build 2178/release

    Video

    ID : 0

    Format : MPEG-4 Visual

    Format profile : Advanced [email protected]
    Format settings, BVOP : No

    Format settings, QPel : No

    Format settings, GMC : No warppoints

    Format settings, Matrix : Custom

    Codec ID : XVID

    Codec ID/Hint : XviD

    Duration : 1h 59mn

    Bit rate : 1 742 Kbps

    Width : 720 pixels

    Height : 304 pixels

    Display aspect ratio : 2.35:1

    Frame rate : 25.000 fps

    Color space : YUV

    Chroma subsampling : 4:2:0

    Bit depth : 8 bits

    Scan type : Progressive

    Compression mode : Lossy

    Bits/(Pixel*Frame) : 0.318

    Stream size : 1.45 GiB (73%)

    Writing library : XviD 64

    Audio #1

    ID : 1

    Format : AC-3

    Format/Info : Audio Coding 3

    Mode extension : CM (complete main)

    Codec ID : 2000

    Duration : 1h 59mn

    Bit rate mode : Constant

    Bit rate : 448 Kbps

    Channel(s) : 6 channels

    Channel positions : Front: L C R, Side: L R, LFE

    Sampling rate : 48.0 KHz

    Bit depth : 16 bits

    Compression mode : Lossy

    Stream size : 382 MiB (19%)

    Alignment : Split accross interleaves

    Interleave, duration : 96 ms (2.40 video frames)

    Interleave, preload duration : 96 ms

    Language : Italian

    Audio #2

    ID : 2

    Format : AC-3

    Format/Info : Audio Coding 3

    Mode extension : CM (complete main)

    Codec ID : 2000

    Duration : 1h 59mn

    Bit rate mode : Constant

    Bit rate : 192 Kbps

    Channel(s) : 2 channels

    Channel positions : Front: L R

    Sampling rate : 48.0 KHz

    Bit depth : 16 bits

    Compression mode : Lossy

    Stream size : 164 MiB (8%)

    Alignment : Split accross interleaves

    Interleave, duration : 96 ms (2.40 video frames)

    Interleave, preload duration : 96 ms

    Language : English

    [/spoiler]

    **


    More at ibit.to
    And ibit.uno
    And ibit.ws

    Reviews

    **The actors and their generation difference, evolution of cinema and the beauty of nature.** This is about a middle aged actress who spends in the Swiss Alps with her personal assistant while preparing for the upcoming project. During that time, she receives a news that the author of the book which was adapted for the screen 20 years ago where she play a main role and now in its remake, she's doing another part, while a young sensation playing the main part. This is more like the evolution of cinema. The 20 years is too soon for her, while the cinema and its trend advanced rapidly. Precisely to say, the commercial films and young actors taking over the art films and true artists' places respectively. If you at least 30 years old, you would get this film more than others. Because while I was growing up in the 90s, the cinema was so different. I'm not talking about the technology like computer graphics, but the story and how it was narrated for the screen. Now the science- fiction and dystopian themes taking over with the young audience and social media support. I think it was a quite meaningful film, particularly if you adore films like the recent evolution in cinema was so faster than ever. The negatives were, the film was too long, slow pace and too simple drama. The positives were, the actors and their performances, the locations, theme and some of the dialogues. Directed by a French filmmaker, this is an international project with a few guest appearances. Most of the film was set in the Alps. Totally different than what I was anticipating, but I still like, except in a few parts where I got bored for its weak development. So this is for the selected audience, that mean it will be appreciated by a very few and I'm kind of neutral with mostly in its favour. _6/10_

    On the way to accept an award from the playwright that discovered her - the very same man who suddenly passes away before the ceremony - acclaimed actress, Maria Enders, is forced to reconcile both her age and her role in contemporary art. While rehearsing for a role, of which she has no choice taking due to her age, she has to reckon with the young actress playing her old role. This is a slow-paced movie, that is, it takes its time revealing the deteriorating confidence of an aging actress. What accentuates her strife are the locations: the lonesome mountains, long winding roads, both straddled by rolling, ground-smothering fog and clouds. Great lingering shots and cinematography eases the eye, as Maria rehearses and incrementally loses her mind with her young assistant, Valentine. Although her assistant attempts to defend what her boss deems as insufficient art (or cinema) and unprofessional (particularly the young costar of the upcoming play), Maria threshes with the stifling fact that her roles - both her role in the play and in the world of art - are changing without her control or consideration. The acting in this film is commendable, with a solid performance from Juliette Binoche (as always) and a surprising effort from Kristen Stewart. These two carry the movie with palpable chemistry - so much so that every turn in their relationship dictates not only the environment of the film, but also the audience. This film is for the patient, and for those who don't mind huge questions.

    Comments

    Files

    Sils Maria (2014).ita.eng.sub.ita.MIRCrew.avi 2.0 GB
    Sils Maria (2014).ita.eng.sub.ita.MIRCrew.ita.idx 116 kB
    Sils Maria (2014).ita.eng.sub.ita.MIRCrew.ita.sub 11 MB

    Stream

    Downloading Seeding Clouds of Sils Maria - Sils Maria (2014).DVDrip.XviD - Italian English.Ac3.5.1.Sub.ita.MIRCrew from to 0 peers.
    of
    0 b/s / ↗0 b/s